<?xml version="1.0" encoding="UTF-8" standalone="no"?>
<!DOCTYPE svg PUBLIC "-//W3C//DTD SVG 1.1//EN" "http://www.w3.org/Graphics/SVG/1.1/DTD/svg11.dtd" >
<svg xmlns="http://www.w3.org/2000/svg">
<metadata>
Generated by SVGconv.
Copyright   : Copyright (c) 2018 ParaType Inc., ParaType Ltd. All rights reserved.
Designer    : ParaType Ltd
Foundry     : ParaType Ltd
Foundry URL : http://www.paratype.com
</metadata>
<defs>
<font id="SBSansScreen-Regular" horiz-adv-x="576" >
<font-face units-per-em="1000" ascent="939" descent="222" >
<font-face-src>
<font-face-name/>
</font-face-src>
</font-face>
<missing-glyph horiz-adv-x="500" />
<glyph unicode="&#13;" horiz-adv-x="255" />
<glyph unicode="&#32;" horiz-adv-x="255" />
<glyph unicode="&#33;" horiz-adv-x="337" d="M168 -6q-32 0 -50 17q-18 17 -18 50q0 33 18 50.5q18 17.5 50 17.5q68 0 68 -68q0 -67 -68 -67zt0 0zM118 714h101l-6 -479l-89 0z" />
<glyph unicode="&#34;" horiz-adv-x="479" d="M93 714h83v-286h-83zM303 714h83v-286l-83 0z" />
<glyph unicode="&#35;" horiz-adv-x="612" d="M344 197h-132l-35 -197h-84l34 197h-102l14 79h102l29 162h-102l13 79h102l35 197h85l-35 -197h132l35 197h84l-35 -197h103l-14 -79h-102l-29 -162h103l-14 -79h-103l-34 -197h-85zM226 276h132l28 162l-132 0z" />
<glyph unicode="&#36;" horiz-adv-x="612" d="M272 -10q-58 3 -106 17.5q-48 14.5 -77 34.5l0 113q31 -27 83.5 -50.5q52.5 -23.5 121.5 -23.5q75 0 107.5 28q32.5 28 32.5 80q0 44 -25.5 69.5q-25.5 25.5 -64 42.5q-38.5 17 -83 31q-44.5 14 -83 37.5q-38.5 23.5 -64 61q-25.5 37.5 -25.5 101.5q0 83 43 131.5q43 48.5 140 58.5l0 94h79v-92q48 -2 88 -11.5q40 -9.5 67 -22.5l0 -113q-31 26 -79 41q-48 15 -99 15q-78 0 -107 -24q-29 -24 -29 -74q0 -32 15 -53q15 -21 39 -35.5q24 -14.5 55 -25q31 -10.5 63 -22q32 -11.5 63 -26.5q31 -15 55 -38.5q24 -23.5 39 -57.5q15 -34 15 -84q0 -88 -44.5 -139q-44.5 -51 -140.5 -62l0 -114l-79 0z" />
<glyph unicode="&#37;" horiz-adv-x="877" d="M636 714h78l-473 -714h-78zM238 381q-80 0 -123.5 44.5q-43.5 44.5 -43.5 125.5q0 81 44 125q44 44 123 44q80 0 123.5 -44q43.5 -44 43.5 -125q0 -81 -44 -125.5q-44 -44.5 -123 -44.5zt0 0zM238 449q46 0 70 24.5q24 24.5 24 77.5q0 102 -94 102q-94 0 -94 -102q0 -53 23.5 -77.5q23.5 -24.5 70.5 -24.5zt0 0zM639 -6q-80 0 -123.5 44q-43.5 44 -43.5 125q0 81 44 125q44 44 123 44q80 0 123.5 -44q43.5 -44 43.5 -125q0 -81 -44 -125q-44 -44 -123 -44zt0 0zM639 61q94 0 94 102q0 53 -23.5 77.5q-23.5 24.5 -70.5 24.5q-46 0 -70 -24.5q-24 -24.5 -24 -77.5q0 -102 94 -102z" />
<glyph unicode="&#38;" horiz-adv-x="816" d="M310 -11q-115 0 -176.5 54q-61.5 54 -61.5 157q0 75 40 128.5q40 53.5 115 90.5q-23 41 -35.5 80.5q-12.5 39.5 -12.5 74.5q0 72 42 111.5q42 39.5 127 39.5q81 0 122 -37.5q41 -37.5 41 -103.5q0 -38 -13.5 -67q-13.5 -29 -37 -51.5q-23.5 -22.5 -56 -40.5q-32.5 -18 -71.5 -34q38 -59 87 -113q49 -54 109 -99q46 59 71.5 141.5q25.5 82.5 29.5 173.5l88 0q-2 -48 -11 -96q-9 -48 -24 -93.5q-15 -45.5 -37 -88q-22 -42.5 -49 -78.5q35 -21 69 -35q34 -14 67 -20l0 -94q-49 8 -99 30q-50 22 -98 56q-48 -42 -105 -64q-57 -22 -121 -22zt0 0zM319 73q41 0 79 13q38 13 70 40q-62 51 -114 109.5q-52 58.5 -90 121.5q-48 -23 -74 -57.5q-26 -34.5 -26 -86.5q0 -66 37 -103q37 -37 118 -37zt0 0zM344 649q-38 0 -60.5 -19q-22.5 -19 -22.5 -64q0 -24 10 -53.5q10 -29.5 28 -61.5q30 12 53.5 24q23.5 12 40 26.5q16.5 14.5 25 32q8.5 17.5 8.5 41.5q0 35 -18.5 54.5t-63.5 19.5z" />
<glyph unicode="&#39;" horiz-adv-x="275" d="M93 714h89v-286l-89 0z" />
<glyph unicode="&#40;" horiz-adv-x="388" d="M87 293q0 83 16.5 153.5q16.5 70.5 44.5 130q28 59.5 65 109.5q37 50 79 94l56 -46q-33 -41 -62.5 -86.5q-29.5 -45.5 -52.5 -99q-23 -53.5 -36.5 -117q-13.5 -63.5 -13.5 -139.5q0 -76 13.5 -139q13.5 -63 36.5 -116.5q23 -53.5 52.5 -98.5q29.5 -45 62.5 -86l-57 -47q-41 43 -78 93.5q-37 50.5 -65 110.5q-28 60 -44.5 130t-16.5 154z" />
<glyph unicode="&#41;" horiz-adv-x="388" d="M300 293q0 -84 -16.5 -154q-16.5 -70 -44 -130q-27.5 -60 -64.5 -110.5q-37 -50.5 -79 -93.5l-56 47q32 41 62 86.5q30 45.5 52.5 98.5q22.5 53 36 116q13.5 63 13.5 140q0 76 -13.5 139q-13.5 63 -36 116.5q-22.5 53.5 -52.5 99q-30 45.5 -62 86.5l57 46q41 -44 78 -94q37 -50 64.5 -109.5q27.5 -59.5 44 -130t16.5 -153.5z" />
<glyph unicode="&#42;" horiz-adv-x="510" d="M111 386l98 117l-142 38l24 81l137 -63l-14 155h82l-14 -155l136 63l25 -81l-143 -38l99 -117l-67 -48l-78 131l-77 -131z" />
<glyph unicode="&#43;" horiz-adv-x="612" d="M97 408h166v167h86v-167h166v-85h-166v-167h-86v167l-166 0z" />
<glyph unicode="&#44;" horiz-adv-x="326" d="M65 -112q45 15 70.5 45q25.5 30 29.5 61q-70 0 -70 68q0 33 18 50q18 17 50 17q40 0 57 -23.5q17 -23.5 17 -70.5q0 -36 -10.5 -68.5q-10.5 -32.5 -29 -58.5q-18.5 -26 -43 -46q-24.5 -20 -52.5 -31z" />
<glyph unicode="&#45;" horiz-adv-x="408" d="M46 326h316v-86l-316 0z" />
<glyph unicode="&#46;" horiz-adv-x="326" d="M163 -6q-32 0 -50 17.5q-18 17.5 -18 50.5q0 33 18 50q18 17 50 17q68 0 68 -67q0 -68 -68 -68z" />
<glyph unicode="&#47;" horiz-adv-x="408" d="M309 769h89l-299 -953l-89 0z" />
<glyph unicode="&#48;" horiz-adv-x="612" d="M306 -11q-57 0 -101.5 18q-44.5 18 -75 61q-30.5 43 -47 113.5q-16.5 70.5 -16.5 175.5q0 105 16 176q16 71 47 113.5q31 42.5 75.5 60.5q44.5 18 101.5 18q60 0 105 -17q45 -17 75 -59q30 -42 45 -113q15 -71 15 -179q0 -107 -15.5 -178q-15.5 -71 -46 -113q-30.5 -42 -75.5 -59.5q-45 -17.5 -103 -17.5zt0 0zM306 81q34 0 60 11q26 11 43 41q17 30 25.5 84q8.5 54 8.5 140q0 87 -8.5 141q-8.5 54 -25.5 84q-17 30 -43 40.5q-26 10.5 -60 10.5q-34 0 -59.5 -11q-25.5 -11 -43 -41q-17.5 -30 -26 -84q-8.5 -54 -8.5 -140q0 -84 9.5 -137.5q9.5 -53.5 27 -84q17.5 -30.5 43 -42.5t57.5 -12z" />
<glyph unicode="&#49;" horiz-adv-x="612" d="M116 86h194v514l-194 -124v95l224 143h69v-628h137v-86l-430 0z" />
<glyph unicode="&#50;" horiz-adv-x="612" d="M69 69q90 84 156.5 142.5q66.5 58.5 110.5 104.5q44 46 66 87q22 41 22 92q0 72 -36.5 105q-36.5 33 -113.5 33q-54 0 -102 -20q-48 -20 -86 -49l0 114q42 22 95 34.5q53 12.5 111 12.5q124 0 178.5 -55q54.5 -55 54.5 -154q0 -59 -19 -106.5q-19 -47.5 -57.5 -95q-38.5 -47.5 -97.5 -101q-59 -53.5 -139 -124.5l320 0v-89l-463 0z" />
<glyph unicode="&#51;" horiz-adv-x="612" d="M190 406h73q81 0 117 31.5q36 31.5 36 88.5q0 56 -31 82q-31 26 -110 26q-64 0 -113.5 -19q-49.5 -19 -81.5 -39l0 104q19 9 44 17q25 8 53 14q28 6 58.5 9.5q30.5 3.5 61.5 3.5q62 0 104 -11.5q42 -11.5 68 -34q26 -22.5 37 -56q11 -33.5 11 -76.5q0 -72 -34.5 -114q-34.5 -42 -102.5 -59q161 -18 161 -173q0 -104 -61 -157.5q-61 -53.5 -191 -53.5q-64 0 -123 12.5q-59 12.5 -95 32.5l0 114q33 -26 86.5 -46q53.5 -20 119.5 -20q49 0 80.5 9q31.5 9 49.5 25.5q18 16.5 25 40q7 23.5 7 52.5q0 56 -38 85q-38 29 -132 29l-79 0z" />
<glyph unicode="&#52;" horiz-adv-x="612" d="M368 182h-331v63l309 469h121v-442h93v-90h-93v-182h-99zM367 272l1 333l-218 -333z" />
<glyph unicode="&#53;" horiz-adv-x="612" d="M119 714h392v-89h-315l-15 -186q19 3 52 4.5q33 1.5 71 1.5q125 0 178.5 -54.5q53.5 -54.5 53.5 -158.5q0 -56 -13.5 -101q-13.5 -45 -44.5 -76.5q-31 -31.5 -82 -48.5q-51 -17 -125 -17q-48 0 -97.5 9q-49.5 9 -87.5 24l0 107q34 -24 82.5 -37q48.5 -13 97.5 -13q92 0 131 36.5q39 36.5 39 111.5q0 36 -8.5 61.5q-8.5 25.5 -29 41.5q-20.5 16 -53.5 23.5q-33 7.5 -82 7.5q-48 0 -93.5 -4q-45.5 -4 -74.5 -9z" />
<glyph unicode="&#54;" horiz-adv-x="612" d="M319 -11q-69 0 -118 21.5q-49 21.5 -80 64q-31 42.5 -45 106q-14 63.5 -14 148.5q0 207 78 301.5q78 94.5 227 94.5q41 0 76.5 -6q35.5 -6 63.5 -17l0 -106q-23 16 -57.5 27.5q-34.5 11.5 -89.5 11.5q-45 0 -83.5 -15q-38.5 -15 -66.5 -47q-28 -32 -44 -83q-16 -51 -16 -123q0 -6 0.5 -13q0.5 -7 0.5 -17q26 60 75 91.5q49 31.5 124 31.5q104 0 155 -58.5q51 -58.5 51 -161.5q0 -66 -18 -113q-18 -47 -49.5 -78q-31.5 -31 -75 -45.5q-43.5 -14.5 -94.5 -14.5zt0 0zM319 75q61 0 100 37.5q39 37.5 39 117.5q0 81 -34 115.5q-34 34.5 -103 34.5q-37 0 -64 -10.5q-27 -10.5 -45.5 -28q-18.5 -17.5 -29.5 -39.5q-11 -22 -15 -45q1 -85 38.5 -133.5t113.5 -48.5z" />
<glyph unicode="&#55;" horiz-adv-x="612" d="M429 625h-368v89h480v-63l-277 -651l-106 0z" />
<glyph unicode="&#56;" horiz-adv-x="612" d="M308 -11q-130 0 -189 54.5q-59 54.5 -59 152.5q0 32 6 61q6 29 21.5 53q15.5 24 42 41.5q26.5 17.5 68.5 26.5q-68 16 -94.5 56q-26.5 40 -26.5 108q0 85 54.5 134q54.5 49 175.5 49q119 0 172 -44.5q53 -44.5 53 -125.5q0 -33 -5 -61q-5 -28 -18.5 -50q-13.5 -22 -36.5 -38q-23 -16 -59 -26q40 -8 67 -23.5q27 -15.5 43 -38q16 -22.5 22.5 -52.5q6.5 -30 6.5 -67q0 -47 -14 -85.5q-14 -38.5 -43.5 -66q-29.5 -27.5 -76 -43q-46.5 -15.5 -110.5 -15.5zt0 0zM309 75q140 0 140 134q0 133 -141 131q-82 -2 -113.5 -37q-31.5 -35 -31.5 -94q0 -134 146 -134zt0 0zM309 408q36 1 60 10q24 9 38.5 25q14.5 16 20 37.5q5.5 21.5 5.5 47.5q0 59 -29 85q-29 26 -98 26q-71 0 -100.5 -30q-29.5 -30 -29.5 -85q0 -54 31 -86t102 -30z" />
<glyph unicode="&#57;" horiz-adv-x="612" d="M248 -11q-42 0 -77 7q-35 7 -64 18l0 106q24 -17 58.5 -29q34.5 -12 88.5 -12q45 0 84 15q39 15 67 47q28 32 44.5 83q16.5 51 16.5 123q0 8 -0.5 15.5q-0.5 7.5 -1.5 14.5q-25 -59 -73.5 -91q-48.5 -32 -123.5 -32q-104 0 -156 58.5q-52 58.5 -52 161.5q0 66 18 113q18 47 49.5 78q31.5 31 75 45.5q43.5 14.5 94.5 14.5q70 0 119 -21.5q49 -21.5 80 -64.5q31 -43 44.5 -107.5q13.5 -64.5 13.5 -150.5q0 -203 -77.5 -297.5q-77.5 -94.5 -227.5 -94.5zt0 0zM295 334q38 0 65.5 10.5q27.5 10.5 46.5 28.5q19 18 29 41.5q10 23.5 13 49.5q-2 82 -38.5 128.5q-36.5 46.5 -114.5 46.5q-61 0 -100 -37.5q-39 -37.5 -39 -117.5q0 -79 35 -114.5t103 -35.5z" />
<glyph unicode="&#58;" horiz-adv-x="337" d="M168 -6q-32 0 -50 17.5q-18 17.5 -18 50.5q0 33 18 50q18 17 50 17q68 0 68 -67q0 -68 -68 -68zt0 0zM168 388q-32 0 -50 17.5q-18 17.5 -18 50.5q0 33 18 50q18 17 50 17q68 0 68 -67q0 -68 -68 -68z" />
<glyph unicode="&#59;" horiz-adv-x="337" d="M70 -112q45 15 70.5 45q25.5 30 29.5 61q-70 0 -70 68q0 33 18 50q18 17 50 17q40 0 57 -23.5q17 -23.5 17 -70.5q0 -36 -10.5 -68.5q-10.5 -32.5 -29 -58.5q-18.5 -26 -43 -46q-24.5 -20 -52.5 -31zM168 388q-32 0 -50 17.5q-18 17.5 -18 50.5q0 33 18 50q18 17 50 17q68 0 68 -67q0 -68 -68 -68z" />
<glyph unicode="&#60;" horiz-adv-x="612" d="M97 321v85l418 204v-98l-313 -146l313 -146l0 -103z" />
<glyph unicode="&#61;" horiz-adv-x="612" d="M97 301h418v-86h-418zM97 512h418v-85l-418 0z" />
<glyph unicode="&#62;" horiz-adv-x="612" d="M515 406v-85l-418 -204v97l313 147l-313 146l0 103z" />
<glyph unicode="&#63;" horiz-adv-x="490" d="M199 -6q-68 0 -68 68q0 67 68 67q68 0 68 -67q0 -68 -68 -68zt0 0zM153 225q0 46 14 77q14 31 34.5 53q20.5 22 44.5 38.5q24 16.5 44.5 35.5q20.5 19 34.5 43q14 24 14 60q0 49 -30 76q-30 27 -99 27q-51 0 -89 -14q-38 -14 -70 -34l0 105q36 17 79 25q43 8 89 8q116 0 168 -47q52 -47 52 -136q0 -50 -14.5 -83q-14.5 -33 -36.5 -56.5q-22 -23.5 -47 -41.5q-25 -18 -47 -36.5q-22 -18.5 -36.5 -41.5q-14.5 -23 -14.5 -58z" />
<glyph unicode="&#64;" horiz-adv-x="918" d="M475 -134q-101 0 -177 30.5q-76 30.5 -126.5 86q-50.5 55.5 -76 134q-25.5 78.5 -25.5 173.5q0 93 25.5 172q25.5 79 76 136q50.5 57 125.5 89.5q75 32.5 173 32.5q88 0 158.5 -26.5q70.5 -26.5 119 -76q48.5 -49.5 74.5 -120.5q26 -71 26 -160q0 -70 -13.5 -121.5q-13.5 -51.5 -37.5 -85q-24 -33.5 -56.5 -50q-32.5 -16.5 -71.5 -16.5q-52 0 -77 23q-25 23 -32 77q-12 -48 -45.5 -74q-33.5 -26 -90.5 -26q-87 0 -124 56.5q-37 56.5 -37 173.5q0 120 47 175q47 55 125 55q29 0 49.5 -6q20.5 -6 34 -17q13.5 -11 22 -26q8.5 -15 13.5 -32l9 72h67v-314q0 -37 11 -54q11 -17 38 -17q20 0 39 10.5q19 10.5 34 34.5q15 24 24 63q9 39 9 96q0 76 -20 136q-20 60 -60 102q-40 42 -99.5 64q-59.5 22 -137.5 22q-83 0 -145.5 -25.5q-62.5 -25.5 -104 -73.5q-41.5 -48 -62.5 -116.5q-21 -68.5 -21 -153.5q0 -80 20 -146.5q20 -66.5 62 -114q42 -47.5 106 -74q64 -26.5 151 -26.5q49 0 97 12q48 12 79 33l0 -72q-34 -14 -79 -24.5q-45 -10.5 -96 -10.5zt0 0zM446 132q53 0 77.5 35.5q24.5 35.5 24.5 105.5v53q0 69 -25 99q-25 30 -72 30q-53 0 -79.5 -35q-26.5 -35 -26.5 -124q0 -84 20.5 -124t80.5 -40z" />
<glyph unicode="&#65;" horiz-adv-x="653" d="M273 714h108l252 -714h-105l-63 186h-282l-63 -186h-100zM212 272h224l-112 330z" />
<glyph unicode="&#66;" horiz-adv-x="637" d="M314 -6q-37 0 -74.5 1.5q-37.5 1.5 -68.5 3.5q-36 3 -70 6l0 704q34 2 70 5q31 2 68 4q37 2 72 2q72 0 119.5 -11q47.5 -11 76 -34q28.5 -23 40.5 -58.5q12 -35.5 12 -84.5q0 -127 -118 -161q141 -18 141 -168q0 -52 -14 -91q-14 -39 -45.5 -65.5q-31.5 -26.5 -83 -39.5q-51.5 -13 -125.5 -13zt0 0zM480 207q0 59 -33.5 88.5q-33.5 29.5 -118.5 29.5h-128v-237q17 -2 36 -3q17 -1 38.5 -1.5q21.5 -0.5 46.5 -0.5q46 0 76.5 7q30.5 7 49 22q18.5 15 26 38.5q7.5 23.5 7.5 56.5zt0 0zM456 522q0 30 -6.5 50.5q-6.5 20.5 -22.5 33.5q-16 13 -43 19q-27 6 -69 6q-24 0 -45 -0.5q-21 -0.5 -37 -1.5q-18 -1 -33 -1l0 -222h118q76 0 107 28.5t31 87.5z" />
<glyph unicode="&#67;" horiz-adv-x="586" d="M366 -11q-79 0 -138 20.5q-59 20.5 -98.5 65.5q-39.5 45 -59 115.5q-19.5 70.5 -19.5 171.5q0 191 79.5 277q79.5 86 231.5 86q38 0 69.5 -4.5q31.5 -4.5 54.5 -9.5q26 -6 48 -14l0 -104q-29 18 -71 29q-42 11 -99 11q-52 0 -91.5 -14.5q-39.5 -14.5 -66 -47q-26.5 -32.5 -40 -84q-13.5 -51.5 -13.5 -125.5q0 -77 14 -130.5q14 -53.5 41 -87q27 -33.5 67 -48.5q40 -15 92 -15q60 0 104 16.5q44 16.5 70 31.5l0 -103q-23 -11 -50 -19q-23 -7 -55 -12.5t-70 -5.5z" />
<glyph unicode="&#68;" horiz-adv-x="694" d="M296 -6q-35 0 -69.5 1.5q-34.5 1.5 -62.5 3.5q-33 3 -63 6l0 704q30 2 63 5q29 2 64.5 4q35.5 2 71.5 2q92 0 157 -19.5q65 -19.5 106.5 -62q41.5 -42.5 60.5 -110q19 -67.5 19 -163.5q0 -194 -86 -282.5q-86 -88.5 -261 -88.5zt0 0zM540 365q0 75 -12.5 125q-12.5 50 -41 80.5q-28.5 30.5 -74 43.5q-45.5 13 -111.5 13q-22 0 -40 -1q-18 -1 -32 -2q-16 -1 -29 -2l0 -530q12 -2 28 -3q13 -1 31 -1.5q18 -0.5 39 -0.5q63 0 108.5 15q45.5 15 75.5 48q30 33 44 86t14 129z" />
<glyph unicode="&#69;" horiz-adv-x="586" d="M101 714h430v-89h-331v-217h290v-85h-290v-234h331v-89l-430 0z" />
<glyph unicode="&#70;" horiz-adv-x="556" d="M101 715h409v-90h-310v-237h280v-90h-280v-298l-99 0z" />
<glyph unicode="&#71;" horiz-adv-x="663" d="M384 -11q-85 0 -147.5 21q-62.5 21 -104 66q-41.5 45 -61.5 115.5q-20 70.5 -20 170.5q0 188 83.5 275.5q83.5 87.5 249.5 87.5q38 0 69 -4.5q31 -4.5 53 -9.5q26 -6 45 -14l0 -104q-28 16 -71 28q-43 12 -96 12q-58 0 -101 -15q-43 -15 -72 -47.5q-29 -32.5 -43.5 -84q-14.5 -51.5 -14.5 -124.5q0 -78 14 -131.5q14 -53.5 42.5 -86.5q28.5 -33 72 -48q43.5 -15 102.5 -15q32 0 61 4.5q29 4.5 52 12.5l0 186h-134v86h229v-335q-29 -16 -83 -31t-125 -15z" />
<glyph unicode="&#72;" horiz-adv-x="734" d="M101 714h99v-303h334v303h99v-714h-99v322h-334v-322l-99 0z" />
<glyph unicode="&#73;" horiz-adv-x="337" d="M119 714h99v-714l-99 0z" />
<glyph unicode="&#74;" horiz-adv-x="428" d="M143 -11q-25 0 -44.5 2.5q-19.5 2.5 -33.5 6.5q-17 4 -30 9l0 103q11 -9 26 -15q13 -5 30.5 -9.5q17.5 -4.5 40.5 -4.5q47 0 69.5 25q22.5 25 22.5 85v523h99v-523q0 -110 -43.5 -156t-136.5 -46z" />
<glyph unicode="&#75;" horiz-adv-x="668" d="M273 321h-73v-321h-99v714h99v-304h74l229 304h119l-266 -347l287 -367l-123 0z" />
<glyph unicode="&#76;" horiz-adv-x="541" d="M101 714h99v-625h310v-89l-409 0z" />
<glyph unicode="&#77;" horiz-adv-x="867" d="M101 714h125l210 -435l210 435h120v-714h-97v463q0 18 0 31.5q0 13.5 0.5 26.5q0.5 13 1 26q0.5 13 2.5 31v0q-9 -18 -14.5 -31q-5.5 -13 -11 -25.5q-5.5 -12.5 -12 -26.5q-6.5 -14 -15.5 -32l-145 -298h-83l-145 298q-9 18 -15.5 32q-6.5 14 -11.5 26.5q-5 12.5 -11 25.5q-6 13 -13 31l-3 0q1 -18 2 -31q1 -13 2 -26q1 -13 1 -26.5q0 -13.5 0 -31.5v-463l-97 0z" />
<glyph unicode="&#78;" horiz-adv-x="755" d="M101 714h112l284 -455q12 -21 23 -40.5q11 -19.5 19 -34.5q10 -18 17 -34l2 0q-1 16 -2 34q-1 15 -1.5 34.5q-0.5 19.5 -0.5 40.5v455h100v-714h-113l-283 455q-14 23 -24.5 42.5q-10.5 19.5 -18.5 34.5l-16 32h-2q0 -14 1 -32q1 -15 1.5 -34.5q0.5 -19.5 0.5 -42.5v-455l-99 0z" />
<glyph unicode="&#79;" horiz-adv-x="724" d="M362 -11q-75 0 -133 21q-58 21 -97.5 66q-39.5 45 -60 114.5q-20.5 69.5 -20.5 166.5q0 193 80 280.5q80 87.5 231 87.5q78 0 136 -20q58 -20 97 -64.5q39 -44.5 58.5 -114.5q19.5 -70 19.5 -169q0 -97 -20.5 -166.5q-20.5 -69.5 -60 -114.5q-39.5 -45 -97.5 -66q-58 -21 -133 -21zt0 0zM362 79q51 0 90 14.5q39 14.5 65.5 47.5q26.5 33 40 86q13.5 53 13.5 130q0 77 -13.5 130q-13.5 53 -40 86q-26.5 33 -65.5 47.5q-39 14.5 -90 14.5q-50 0 -89 -15q-39 -15 -65.5 -48q-26.5 -33 -40.5 -86q-14 -53 -14 -129q0 -76 14 -129q14 -53 40.5 -86q26.5 -33 65.5 -48t89 -15z" />
<glyph unicode="&#80;" horiz-adv-x="632" d="M101 709q31 2 64 5q29 2 64.5 4q35.5 2 73.5 2q76 0 129.5 -14.5q53.5 -14.5 86.5 -44q33 -29.5 48 -75q15 -45.5 15 -108.5q0 -126 -66.5 -189q-66.5 -63 -212.5 -63q-23 0 -41.5 0.5q-18.5 0.5 -32.5 1.5q-16 1 -29 3l0 -231h-99zM479 478q0 40 -8.5 68.5q-8.5 28.5 -29 46.5q-20.5 18 -54.5 26q-34 8 -84 8q-23 0 -41.5 -1q-18.5 -1 -32.5 -2q-16 -1 -29 -2l0 -299q13 -1 29 -2q14 -1 32.5 -1.5q18.5 -0.5 41.5 -0.5q97 0 136.5 37.5t39.5 121.5z" />
<glyph unicode="&#81;" horiz-adv-x="724" d="M359 -11q-75 0 -132.5 21.5q-57.5 21.5 -96.5 66.5q-39 45 -59 114.5q-20 69.5 -20 165.5q0 193 80 280.5q80 87.5 231 87.5q78 0 136 -20q58 -20 97 -64.5q39 -44.5 58.5 -114.5q19.5 -70 19.5 -169q0 -156 -52.5 -242.5q-52.5 -86.5 -152.5 -113.5l135 -164h-120zM362 79q51 0 90 14.5q39 14.5 65.5 47.5q26.5 33 40 86q13.5 53 13.5 130q0 77 -13.5 130q-13.5 53 -40 86q-26.5 33 -65.5 47.5q-39 14.5 -90 14.5q-50 0 -89 -15q-39 -15 -65.5 -48q-26.5 -33 -40.5 -86q-14 -53 -14 -129q0 -76 14 -129q14 -53 40.5 -86q26.5 -33 65.5 -48t89 -15z" />
<glyph unicode="&#82;" horiz-adv-x="653" d="M338 272q-9 -1 -18.5 -1q-9.5 0 -19.5 0h-100v-271h-99v709q28 2 61 5q27 2 62 4q35 2 72 2q72 0 122 -13.5q50 -13.5 81.5 -41q31.5 -27.5 45.5 -69.5q14 -42 14 -99q0 -80 -29.5 -131.5q-29.5 -51.5 -94.5 -74.5l168 -291h-112zM456 494q0 36 -8 61q-8 25 -26 41q-18 16 -48 23.5q-30 7.5 -74 7.5q-20 0 -38 -0.5q-18 -0.5 -32 -1.5q-17 -1 -31 -1l0 -264h101q84 0 120 33.5t36 100.5z" />
<glyph unicode="&#83;" horiz-adv-x="592" d="M288 -11q-66 0 -121.5 15.5q-55.5 15.5 -87.5 37.5l0 113q31 -27 83.5 -50.5q52.5 -23.5 121.5 -23.5q75 0 107.5 28q32.5 28 32.5 80q0 44 -25.5 69.5q-25.5 25.5 -64 42.5q-38.5 17 -83 31q-44.5 14 -83 37.5q-38.5 23.5 -64 61q-25.5 37.5 -25.5 101.5q0 93 55.5 143q55.5 50 179.5 50q57 0 104 -10q47 -10 77 -25l0 -113q-30 26 -78 41q-48 15 -99 15q-78 0 -107.5 -24q-29.5 -24 -29.5 -74q0 -43 25.5 -66.5q25.5 -23.5 64 -39q38.5 -15.5 83 -29.5q44.5 -14 83 -38q38.5 -24 64 -63.5q25.5 -39.5 25.5 -105.5q0 -99 -57 -151.5t-181 -52.5z" />
<glyph unicode="&#84;" horiz-adv-x="592" d="M246 625h-211v89h521v-89h-211v-625l-99 0z" />
<glyph unicode="&#85;" horiz-adv-x="683" d="M342 -11q-68 0 -117 15.5q-49 15.5 -81 50q-32 34.5 -47.5 89q-15.5 54.5 -15.5 132.5v438h99v-433q0 -58 9 -96.5q9 -38.5 28.5 -61.5q19.5 -23 50 -32.5q30.5 -9.5 74.5 -9.5q44 0 74.5 9.5q30.5 9.5 50 32q19.5 22.5 28 61q8.5 38.5 8.5 97.5v433h99v-438q0 -77 -15.5 -131.5q-15.5 -54.5 -47.5 -89q-32 -34.5 -81 -50.5t-116 -16z" />
<glyph unicode="&#86;" horiz-adv-x="632" d="M20 714h108l195 -595l187 595h102l-231 -714l-119 0z" />
<glyph unicode="&#87;" horiz-adv-x="918" d="M30 714h105l101 -460q4 -18 6.5 -31q2.5 -13 5 -26q2.5 -13 5 -26q2.5 -13 5.5 -31l2 0q3 18 5.5 31q2.5 13 5.5 26q3 13 6.5 26q3.5 13 8.5 31l117 460h113l120 -460q5 -18 8 -31q3 -13 6 -26q3 -13 5.5 -26q2.5 -13 5.5 -31l3 0q3 18 5 31q2 13 4 26q2 13 5 26q3 13 7 31l101 460h102l-159 -714h-119l-124 473q-6 22 -11 42q-5 20 -9 37q-4 18 -7 36l-3 0q-3 -18 -7 -36q-4 -17 -9 -37q-5 -20 -10 -42l-122 -473l-119 0z" />
<glyph unicode="&#88;" horiz-adv-x="643" d="M259 366l-221 348h115l169 -267l170 267h112l-220 -346l233 -368h-116l-181 287l-182 -287l-113 0z" />
<glyph unicode="&#89;" horiz-adv-x="622" d="M267 275l-247 439h113l184 -334l177 334h108l-236 -439v-275l-99 0z" />
<glyph unicode="&#90;" horiz-adv-x="602" d="M51 64l363 561h-353v89h480v-64l-363 -561h373v-89l-500 0z" />
<glyph unicode="&#91;" horiz-adv-x="388" d="M108 769h240v-82h-150v-788h150v-83l-240 0z" />
<glyph unicode="&#92;" horiz-adv-x="408" d="M10 769h93l295 -953l-93 0z" />
<glyph unicode="&#93;" horiz-adv-x="388" d="M40 -101h149v788h-149v82h240v-953l-240 0z" />
<glyph unicode="&#94;" horiz-adv-x="612" d="M263 714h86l187 -351h-87l-144 278l-145 -278l-84 0z" />
<glyph unicode="&#95;" horiz-adv-x="428" d="M0 -112h428v-72l-428 0z" />
<glyph unicode="&#96;" horiz-adv-x="306" d="M49 773h126l82 -144l-80 0z" />
<glyph unicode="&#97;" horiz-adv-x="546" d="M218 -11q-83 0 -125.5 41.5q-42.5 41.5 -42.5 119.5q0 40 11 71q11 31 36.5 51q25.5 20 66 30.5q40.5 10.5 100.5 10.5h112v46q0 56 -26.5 79.5q-26.5 23.5 -96.5 23.5q-48 0 -90 -13q-42 -13 -70 -32l0 98q29 14 75.5 24.5q46.5 10.5 97.5 10.5q56 0 95 -10.5q39 -10.5 63 -33.5q24 -23 35 -59.5q11 -36.5 11 -88.5v-358h-85l-5 92q-19 -43 -58.5 -73q-39.5 -30 -103.5 -30zt0 0zM244 72q61 0 96.5 36q35.5 36 35.5 104v36h-105q-71 0 -97.5 -23q-26.5 -23 -26.5 -70q0 -41 23 -62t74 -21z" />
<glyph unicode="&#98;" horiz-adv-x="602" d="M339 -11q-36 0 -62.5 8q-26.5 8 -46 22q-19.5 14 -33 31.5q-13.5 17.5 -22.5 37.5l-6 -88h-88v769h94v-317q12 20 27 37.5q15 17.5 36 31q21 13.5 48.5 21.5q27.5 8 64.5 8q50 0 87.5 -15q37.5 -15 63 -48q25.5 -33 38 -85.5q12.5 -52.5 12.5 -127.5q0 -78 -13.5 -132q-13.5 -54 -40 -88q-26.5 -34 -66.5 -49.5q-40 -15.5 -93 -15.5zt0 0zM315 75q35 0 61 9.5q26 9.5 43.5 32.5q17.5 23 26 61.5q8.5 38.5 8.5 95.5q0 53 -8.5 89q-8.5 36 -25.5 58q-17 22 -42.5 31.5q-25.5 9.5 -58.5 9.5q-69 0 -106.5 -39q-37.5 -39 -37.5 -121v-67q0 -79 38 -119.5t102 -40.5z" />
<glyph unicode="&#99;" horiz-adv-x="484" d="M306 -11q-130 0 -193 66.5q-63 66.5 -63 218.5q0 142 63.5 209q63.5 67 185.5 67q56 0 92.5 -10.5q36.5 -10.5 49.5 -16.5l0 -101q-23 17 -57 28.5q-34 11.5 -78 11.5q-78 0 -118.5 -44q-40.5 -44 -40.5 -144q0 -107 42 -153q42 -46 127 -46q38 0 75 13q37 13 58 30l0 -97q-14 -8 -50 -20t-93 -12z" />
<glyph unicode="&#100;" horiz-adv-x="602" d="M427 89q-9 -19 -23.5 -37q-14.5 -18 -35 -32q-20.5 -14 -47.5 -22.5q-27 -8.5 -63 -8.5q-52 0 -91 15q-39 15 -65 49q-26 34 -39 88.5q-13 54.5 -13 132.5q0 144 53 210q53 66 153 66q66 0 109.5 -27q43.5 -27 61.5 -73l0 319h94v-769h-88zM147 274q0 -57 9 -95q9 -38 26.5 -61q17.5 -23 43.5 -33q26 -10 61 -10q64 0 102 41q38 41 38 123v65q0 74 -35 116q-35 42 -109 42q-68 0 -102 -41.5t-34 -146.5z" />
<glyph unicode="&#101;" horiz-adv-x="561" d="M302 -11q-130 0 -191 68q-61 68 -61 216q0 141 62.5 209q62.5 68 173.5 68q117 0 171 -63q54 -63 54 -199v-43h-367q2 -90 41.5 -131.5q39.5 -41.5 124.5 -41.5q51 0 95.5 16.5q44.5 16.5 71.5 40.5l0 -93q-26 -17 -69 -32q-43 -15 -106 -15zt0 0zM286 469q-68 0 -103.5 -37q-35.5 -37 -38.5 -121l273 0q0 38 -6.5 67.5q-6.5 29.5 -21.5 49.5q-15 20 -40 30.5t-63 10.5z" />
<glyph unicode="&#102;" horiz-adv-x="408" d="M130 453h-95v85h95v73q0 86 37 124.5q37 38.5 122 38.5q26 0 47.5 -3q21.5 -3 35.5 -7l0 -94q-11 8 -30 13q-19 5 -44 5q-41 0 -57.5 -19.5q-16.5 -19.5 -16.5 -71.5v-59h148v-85h-148v-453l-94 0z" />
<glyph unicode="&#103;" horiz-adv-x="602" d="M277 -195q-62 0 -109.5 11.5q-47.5 11.5 -74.5 25.5l0 107q21 -19 68.5 -38q47.5 -19 113.5 -19q81 0 116.5 34q35.5 34 35.5 106v75q-9 -20 -23.5 -38q-14.5 -18 -35 -32q-20.5 -14 -47.5 -22.5q-27 -8.5 -63 -8.5q-51 0 -90 15q-39 15 -65.5 48q-26.5 33 -39.5 84.5q-13 51.5 -13 124.5q0 141 53 206.5q53 65.5 153 65.5q66 0 109.5 -27q43.5 -27 61.5 -73l6 88h88v-500q0 -121 -59.5 -177q-59.5 -56 -184.5 -56zt0 0zM287 93q64 0 102 42q38 42 38 119v56q0 69 -35 110.5q-35 41.5 -109 41.5q-68 0 -102 -40.5q-34 -40.5 -34 -138.5q0 -54 9 -90q9 -36 26.5 -58.5q17.5 -22.5 43.5 -32t61 -9.5z" />
<glyph unicode="&#104;" horiz-adv-x="597" d="M81 769h94v-322q23 50 62.5 76.5q39.5 26.5 102.5 26.5q91 0 136 -47q45 -47 45 -155v-348h-94v314q0 43 -7 71.5q-7 28.5 -21.5 45.5q-14.5 17 -37 24q-22.5 7 -54.5 7q-62 0 -97 -36.5q-35 -36.5 -35 -111.5v-314l-94 0z" />
<glyph unicode="&#105;" horiz-adv-x="296" d="M100 538h95v-538h-95zM148 644q-60 0 -60 57q0 57 60 57q60 0 60 -57q0 -57 -60 -57z" />
<glyph unicode="&#106;" horiz-adv-x="296" d="M56 -190q-28 0 -49 4.5q-21 4.5 -28 7.5l0 94q11 -8 26.5 -13.5q15.5 -5.5 35.5 -5.5q31 0 45 17.5q14 17.5 14 63.5v560h95v-564q0 -88 -35 -126q-35 -38 -104 -38zt0 0zM148 644q-60 0 -60 57q0 57 60 57q60 0 60 -57q0 -57 -60 -57z" />
<glyph unicode="&#107;" horiz-adv-x="566" d="M81 769h94v-448h60l166 217h110l-200 -257l220 -281h-113l-183 237h-60v-237l-94 0z" />
<glyph unicode="&#108;" horiz-adv-x="321" d="M209 -6q-69 0 -101 33q-32 33 -32 104v638h94v-621q0 -39 13 -52.5q13 -13.5 44 -13.5q18 0 35 5.5q17 5.5 24 8.5l0 -87q-7 -3 -27.5 -9t-49.5 -6z" />
<glyph unicode="&#109;" horiz-adv-x="852" d="M81 538h88l6 -88q21 49 57 74.5q36 25.5 92 25.5q61 0 95.5 -30q34.5 -30 44.5 -82q22 63 61.5 87.5q39.5 24.5 98.5 24.5q70 0 111 -46q41 -46 41 -146v-358h-94v330q0 73 -25.5 102.5q-25.5 29.5 -73.5 29.5q-49 0 -78 -32q-29 -32 -29 -100v-330h-95v330q0 73 -25 102.5q-25 29.5 -71 29.5q-51 0 -80.5 -32q-29.5 -32 -29.5 -100v-330l-94 0z" />
<glyph unicode="&#110;" horiz-adv-x="597" d="M81 538h88l6 -90q23 48 62.5 75q39.5 27 102.5 27q91 0 136 -47q45 -47 45 -155v-348h-94v316q0 42 -7 70q-7 28 -21.5 45q-14.5 17 -37 24q-22.5 7 -54.5 7q-62 0 -97 -36.5q-35 -36.5 -35 -109.5v-316l-94 0z" />
<glyph unicode="&#111;" horiz-adv-x="581" d="M291 -11q-118 0 -179.5 66q-61.5 66 -61.5 214q0 143 64 212q64 69 177 69q60 0 105 -15.5q45 -15.5 75 -49.5q30 -34 45 -87.5q15 -53.5 15 -128.5q0 -148 -61.5 -214q-61.5 -66 -178.5 -66zt0 0zM291 75q36 0 62.5 10q26.5 10 44.5 32.5q18 22.5 27 59.5q9 37 9 92q0 54 -9 91q-9 37 -26.5 59.5q-17.5 22.5 -44.5 32.5q-27 10 -63 10q-69 0 -106.5 -43.5q-37.5 -43.5 -37.5 -149.5q0 -55 9 -92q9 -37 27 -59.5q18 -22.5 45 -32.5t63 -10z" />
<glyph unicode="&#112;" horiz-adv-x="602" d="M81 538h88l6 -86q12 20 27 37.5q15 17.5 36 31q21 13.5 48.5 21.5q27.5 8 64.5 8q50 0 87.5 -15q37.5 -15 63 -48q25.5 -33 38 -85.5q12.5 -52.5 12.5 -127.5q0 -78 -13.5 -132q-13.5 -54 -40 -88q-26.5 -34 -66.5 -49.5q-40 -15.5 -93 -15.5q-36 0 -62.5 8q-26.5 8 -46 22q-19.5 14 -33 31.5q-13.5 17.5 -22.5 37.5l0 -272h-94zM454 274q0 53 -8.5 89q-8.5 36 -25.5 58q-17 22 -42.5 31.5q-25.5 9.5 -59.5 9.5q-69 0 -106 -39q-37 -39 -37 -121v-67q0 -79 38 -119.5q38 -40.5 103 -40.5q34 0 60 9.5q26 9.5 43.5 32.5q17.5 23 26 61.5t8.5 95.5z" />
<glyph unicode="&#113;" horiz-adv-x="602" d="M427 89q-9 -19 -23.5 -37q-14.5 -18 -35 -32q-20.5 -14 -47.5 -22.5q-27 -8.5 -63 -8.5q-52 0 -91 15q-39 15 -65 49q-26 34 -39 88.5q-13 54.5 -13 132.5q0 144 53 210q53 66 153 66q66 0 109.5 -27q43.5 -27 61.5 -73l6 88h88v-722h-94zM147 274q0 -57 9 -95q9 -38 26.5 -61q17.5 -23 43.5 -33q26 -10 61 -10q64 0 102 41q38 41 38 123v65q0 74 -35 116q-35 42 -109 42q-68 0 -102 -41.5t-34 -146.5z" />
<glyph unicode="&#114;" horiz-adv-x="418" d="M81 538h83l6 -92q20 55 57 79.5q37 24.5 88 24.5q17 0 32 -2.5q15 -2.5 21 -5.5l0 -101q-13 8 -32 14.5q-19 6.5 -45 6.5q-54 0 -85 -35.5q-31 -35.5 -31 -117.5v-309l-94 0z" />
<glyph unicode="&#115;" horiz-adv-x="484" d="M231 -11q-87 0 -160 31l0 104q29 -26 69.5 -39q40.5 -13 88.5 -13q54 0 76 19.5q22 19.5 22 56.5q0 32 -19.5 48.5q-19.5 16.5 -48.5 27q-29 10.5 -63 19.5q-34 9 -63 25q-29 16 -48.5 44.5q-19.5 28.5 -19.5 78.5q0 78 45 118.5q45 40.5 147 40.5q41 0 79 -8.5q38 -8.5 63 -17.5l0 -100q-30 20 -64.5 31q-34.5 11 -75.5 11q-54 0 -75 -18q-21 -18 -21 -50q0 -30 19.5 -45.5q19.5 -15.5 48.5 -25.5q29 -10 62.5 -18.5q33.5 -8.5 62.5 -25.5q29 -17 48.5 -46.5q19.5 -29.5 19.5 -81.5q0 -83 -45.5 -124.5t-147.5 -41.5z" />
<glyph unicode="&#116;" horiz-adv-x="444" d="M282 -6q-80 0 -116 39q-36 39 -36 129v291h-95v85h95v106l94 32v-138h169v-85h-169v-284q0 -48 16.5 -68q16.5 -20 56.5 -20q32 0 55 9q23 9 41 23l0 -94q-14 -10 -44 -17.5t-67 -7.5z" />
<glyph unicode="&#117;" horiz-adv-x="592" d="M253 -11q-87 0 -132 47q-45 47 -45 154v348h94v-316q0 -84 27.5 -115.5q27.5 -31.5 87.5 -31.5q62 0 97 37q35 37 35 110v316h94v-538h-89l-5 89q-23 -46 -62 -73t-102 -27z" />
<glyph unicode="&#118;" horiz-adv-x="530" d="M20 538h103l144 -427l145 427h98l-192 -538l-105 0z" />
<glyph unicode="&#119;" horiz-adv-x="775" d="M35 538h97l80 -338q3 -16 6 -30.5q3 -14.5 5 -25.5l5 -25h2l5 25q2 11 5 25.5q3 14.5 8 30.5l93 338h97l95 -338q4 -16 7 -30.5q3 -14.5 5 -25.5l5 -25h3q2 12 4 25q2 11 4 25.5q2 14.5 6 30.5l79 338h94l-125 -538h-112l-96 340q-4 15 -7.5 30q-3.5 15 -5.5 26q-3 13 -5 26l-2 0q-2 -13 -6 -26q-3 -11 -7 -26q-4 -15 -8 -30l-94 -340l-112 0z" />
<glyph unicode="&#120;" horiz-adv-x="551" d="M215 278l-167 260h107l121 -190l122 190h105l-167 -258l180 -280h-108l-134 212l-135 -212l-104 0z" />
<glyph unicode="&#121;" horiz-adv-x="530" d="M166 -195q-21 0 -39 4q-18 4 -23 7l0 92q10 -8 22 -12q12 -4 29 -4q12 0 22 3.5q10 3.5 20 15q10 11.5 19 33q9 21.5 20 56.5l-216 538h103l157 -412l132 412h98l-181 -539q-21 -63 -39.5 -101.5q-18.5 -38.5 -37 -59q-18.5 -20.5 -39.5 -27t-47 -6.5z" />
<glyph unicode="&#122;" horiz-adv-x="500" d="M46 59l279 394h-269v85h392v-59l-280 -395h286v-84l-408 0z" />
<glyph unicode="&#123;" horiz-adv-x="388" d="M282 -184q-45 0 -76 13q-31 13 -49.5 35q-18.5 22 -26.5 52q-8 30 -8 64v173q0 49 -20 75.5q-20 26.5 -58 28.5l0 71q38 2 58 29.5q20 27.5 20 74.5v177q0 34 8 63.5q8 29.5 26.5 51q18.5 21.5 49.5 33.5q31 12 76 12h66v-82h-52q-49 0 -66 -25.5q-17 -25.5 -17 -68.5v-162q0 -55 -16 -89.5q-16 -34.5 -70 -48.5q27 -6 44 -19q17 -13 26 -31.5q9 -18.5 12.5 -41.5q3.5 -23 3.5 -50v-156q0 -42 17 -69q17 -27 66 -27h52l0 -83z" />
<glyph unicode="&#124;" horiz-adv-x="306" d="M108 769h90v-953l-90 0z" />
<glyph unicode="&#125;" horiz-adv-x="388" d="M39 -101h52q50 0 67 25q17 25 17 67v163q0 27 3.5 49.5q3.5 22.5 12.5 40q9 17.5 25.5 29.5q16.5 12 43.5 20q-27 6 -43.5 18.5q-16.5 12.5 -25.5 30.5q-9 18 -12.5 41.5q-3.5 23.5 -3.5 50.5v159q0 43 -17.5 68.5q-17.5 25.5 -66.5 25.5h-52v82h66q46 0 76.5 -12q30.5 -12 49 -33.5q18.5 -21.5 26.5 -51q8 -29.5 8 -63.5v-178q0 -48 20.5 -74.5q20.5 -26.5 58.5 -28.5l0 -71q-38 -2 -58.5 -29.5q-20.5 -27.5 -20.5 -74.5v-177q0 -34 -8 -63q-8 -29 -26.5 -50.5q-18.5 -21.5 -49 -34q-30.5 -12.5 -76.5 -12.5l-66 0z" />
<glyph unicode="&#126;" horiz-adv-x="612" d="M97 398q19 22 44 36.5q25 14.5 61 14.5q34 0 61.5 -12q27.5 -12 51.5 -27q24 -15 46.5 -27q22.5 -12 48.5 -12q35 0 61.5 18.5q26.5 18.5 43.5 38.5l0 -91q-19 -22 -44 -36.5q-25 -14.5 -61 -14.5q-34 0 -61.5 12q-27.5 12 -51.5 27q-24 15 -47 27q-23 12 -48 12q-35 0 -61.5 -19q-26.5 -19 -43.5 -39z" />
<glyph unicode="&#160;" horiz-adv-x="255" />
<glyph unicode="&#161;" horiz-adv-x="337" d="M168 543q68 0 68 -67q0 -32 -17.5 -50q-17.5 -18 -50.5 -18q-32 0 -50 18q-18 18 -18 50q0 33 18 50q18 17 50 17zt0 0zM219 -184h-101l6 486l89 0z" />
<glyph unicode="&#162;" horiz-adv-x="612" d="M308 -6q-101 14 -149 81q-48 67 -48 199q0 123 49.5 189.5q49.5 66.5 147.5 81.5l0 95h83v-91q58 -2 89 -13.5q31 -11.5 42 -15.5l0 -101q-23 17 -57 30q-34 13 -87 13q-86 0 -127.5 -44q-41.5 -44 -41.5 -144q0 -107 43 -153q43 -46 136 -46q48 0 85 14.5q37 14.5 58 32.5l0 -98q-13 -8 -46 -20.5q-33 -12.5 -94 -14.5l0 -111l-83 0z" />
<glyph unicode="&#163;" horiz-adv-x="612" d="M48 87h111v241h-111v75h111v85q0 36 9.5 78q9.5 42 35 77q25.5 35 71.5 58.5q46 23.5 120 23.5q48 0 85.5 -8.5q37.5 -8.5 63.5 -16.5l0 -90q-30 11 -62 20q-32 9 -78 9q-39 0 -66.5 -12q-27.5 -12 -45.5 -33q-18 -21 -26 -50q-8 -29 -8 -63v-78h185v-75h-185v-241h286v-87l-496 0z" />
<glyph unicode="&#164;" horiz-adv-x="612" d="M432 183q-27 -20 -59.5 -30.5q-32.5 -10.5 -67.5 -10.5q-36 0 -68 10.5q-32 10.5 -59 30.5l-66 -66l-47 47l66 66q-20 26 -30.5 58.5q-10.5 32.5 -10.5 68.5q0 35 10.5 67.5q10.5 32.5 30.5 59.5l-66 66l48 47l66 -66q26 20 58.5 31q32.5 11 67.5 11q35 0 68 -11q33 -11 60 -31l67 67l46 -46l-67 -68q20 -27 31 -59.5q11 -32.5 11 -67.5q0 -35 -11 -67.5q-11 -32.5 -31 -58.5l67 -67l-47 -48zM305 220q28 0 53 10.5q25 10.5 44 29.5q19 19 29.5 43.5q10.5 24.5 10.5 53.5q0 28 -10.5 53q-10.5 25 -29.5 44q-19 19 -44 29.5q-25 10.5 -53 10.5q-28 0 -53 -10.5q-25 -10.5 -43.5 -29.5q-18.5 -19 -29.5 -44q-11 -25 -11 -53q0 -29 11 -53.5q11 -24.5 29.5 -43.5q18.5 -19 43.5 -29.5t53 -10.5z" />
<glyph unicode="&#165;" horiz-adv-x="612" d="M86 345h134l-200 369h113l179 -339l172 339h108l-192 -369h136v-76h-175v-66h175v-76h-175v-127h-100v127h-175v76h175v66l-175 0z" />
<glyph unicode="&#166;" horiz-adv-x="306" d="M108 216h90v-400h-90zM108 769h90v-400l-90 0z" />
<glyph unicode="&#167;" horiz-adv-x="541" d="M244 -113q-41 0 -84 7q-43 7 -79 21l0 88q43 -21 79 -29q36 -8 75 -8q69 0 93.5 19q24.5 19 24.5 51q0 32 -31 55q-31 23 -88 49q-37 16 -69 32q-32 16 -55 36q-23 20 -36.5 46q-13.5 26 -13.5 62q0 42 25 77.5q25 35.5 69 64.5q-34 22 -51 49q-17 27 -17 65q0 72 53.5 112.5q53.5 40.5 153.5 40.5q50 0 88 -8.5q38 -8.5 61 -16.5l0 -86q-43 17 -76.5 24.5q-33.5 7.5 -68.5 7.5q-48 0 -79 -15q-31 -15 -31 -56q0 -29 22.5 -49q22.5 -20 80.5 -48q31 -14 65 -29.5q34 -15.5 61.5 -35.5q27.5 -20 45.5 -47q18 -27 18 -65q0 -40 -25 -78q-25 -38 -66 -69q31 -22 48.5 -48.5q17.5 -26.5 17.5 -64.5q0 -80 -57 -117q-57 -37 -154 -37zt0 0zM327 187q22 20 40.5 44.5q18.5 24.5 18.5 55.5q0 34 -22.5 57q-22.5 23 -68.5 46q-4 2 -14.5 6.5q-10.5 4.5 -22 10q-11.5 5.5 -22.5 11q-11 5.5 -17 8.5q-30 -22 -47 -45.5q-17 -23.5 -17 -49.5q0 -18 5 -32.5q5 -14.5 16.5 -27q11.5 -12.5 29.5 -24q18 -11.5 45 -24.5q5 -2 16 -7q11 -5 23 -11q12 -6 22.5 -11t14.5 -7z" />
<glyph unicode="&#168;" horiz-adv-x="418" d="M111 646q-59 0 -59 55q0 55 59 55q58 0 58 -55q0 -55 -58 -55zt0 0zM307 646q-58 0 -58 55q0 55 58 55q59 0 59 -55q0 -55 -59 -55z" />
<glyph unicode="&#169;" horiz-adv-x="847" d="M438 157q-101 0 -147 54.5q-46 54.5 -46 146.5q0 101 49.5 151.5q49.5 50.5 145.5 50.5q27 0 49 -3.5q22 -3.5 38 -8.5l0 -60q-18 7 -39.5 9.5q-21.5 2.5 -39.5 2.5q-66 0 -98.5 -34.5q-32.5 -34.5 -32.5 -106.5q0 -76 34 -108.5q34 -32.5 97 -32.5q19 0 39.5 3.5q20.5 3.5 39.5 11.5l0 -61q-17 -7 -38.5 -11q-21.5 -4 -50.5 -4zt0 0zM423 -11q-78 0 -145.5 28q-67.5 28 -117 77.5q-49.5 49.5 -77.5 117q-28 67.5 -28 145.5q0 78 28 145q28 67 77.5 116.5q49.5 49.5 117 78q67.5 28.5 145.5 28.5q78 0 145.5 -28.5q67.5 -28.5 117 -78q49.5 -49.5 78 -116.5q28.5 -67 28.5 -145q0 -77 -28.5 -144.5q-28.5 -67.5 -78 -117q-49.5 -49.5 -117 -78q-67.5 -28.5 -145.5 -28.5zt0 0zM423 51q65 0 120.5 23.5q55.5 23.5 96.5 64.5q41 41 64 97q23 56 23 121q0 65 -23 121q-23 56 -64 97q-41 41 -96.5 64.5q-55.5 23.5 -120.5 23.5q-65 0 -120.5 -23.5q-55.5 -23.5 -96 -64.5q-40.5 -41 -64 -97q-23.5 -56 -23.5 -121q0 -65 23.5 -121q23.5 -56 64 -97q40.5 -41 96 -64.5t120.5 -23.5z" />
<glyph unicode="&#170;" horiz-adv-x="377" d="M152 381q-58 0 -84.5 25q-26.5 25 -26.5 74q0 50 31.5 77q31.5 27 108.5 27h74v17q0 30 -16.5 44q-16.5 14 -61.5 14q-28 0 -57 -7.5q-29 -7.5 -49 -17.5l0 67q21 8 51 13.5q30 5.5 65 5.5q77 0 108.5 -29.5q31.5 -29.5 31.5 -93.5v-209h-64l-7 53q-11 -22 -36 -41q-25 -19 -68 -19zt0 0zM176 440q35 0 57 21.5q22 21.5 22 53.5v21h-64q-44 0 -60 -12.5q-16 -12.5 -16 -38.5q0 -23 14.5 -34t46.5 -11z" />
<glyph unicode="&#171;" horiz-adv-x="561" d="M185 495h91l-133 -211l133 -214h-94l-132 211zM399 495h91l-133 -211l133 -214h-94l-132 211z" />
<glyph unicode="&#172;" horiz-adv-x="612" d="M97 408h418v-219h-85v134l-333 0z" />
<glyph unicode="&#173;" horiz-adv-x="408" d="M46 326h316v-86l-316 0z" />
<glyph unicode="&#174;" horiz-adv-x="612" d="M51 528q0 56 18.5 102.5q18.5 46.5 52 79.5q33.5 33 80.5 51.5q47 18.5 104 18.5q57 0 104 -18.5q47 -18.5 80.5 -51.5q33.5 -33 52 -79.5q18.5 -46.5 18.5 -102.5q0 -56 -18.5 -102.5q-18.5 -46.5 -52 -79.5q-33.5 -33 -80.5 -51.5q-47 -18.5 -104 -18.5q-57 0 -104 18.5q-47 18.5 -80.5 51.5q-33.5 33 -52 79.5q-18.5 46.5 -18.5 102.5zt0 0zM100 529q0 -46 15 -84q15 -38 42 -65q27 -27 65 -42q38 -15 84 -15q46 0 84 15q38 15 65.5 42q27.5 27 42.5 65q15 38 15 84q0 46 -15 83.5q-15 37.5 -42.5 64.5q-27.5 27 -65.5 42q-38 15 -84 15q-46 0 -84 -15q-38 -15 -65 -42q-27 -27 -42 -64.5q-15 -37.5 -15 -83.5zt0 0zM206 672h108q16 0 33 -3q17 -3 31 -12q14 -9 23 -26q9 -17 9 -45q0 -30 -14 -50.5q-14 -20.5 -35 -26.5l68 -111h-62l-60 102h-45v-102h-56zM309 545q17 0 31 8.5q14 8.5 14 31.5q0 26 -13 32.5q-13 6.5 -33 6.5h-47l0 -79z" />
<glyph unicode="&#175;" horiz-adv-x="326" d="M30 726h267v-70l-267 0z" />
<glyph unicode="&#176;" horiz-adv-x="408" d="M205 397q-35 0 -65 13q-30 13 -52 35q-22 22 -35 52q-13 30 -13 64q0 34 13 64q13 30 35 52q22 22 52 35q30 13 65 13q34 0 63.5 -13q29.5 -13 51.5 -35q22 -22 35 -52q13 -30 13 -64q0 -34 -13 -64q-13 -30 -35 -52q-22 -22 -51.5 -35q-29.5 -13 -63.5 -13zt0 0zM205 470q38 0 64 26.5q26 26.5 26 64.5q0 38 -26 64.5q-26 26.5 -64 26.5q-19 0 -35.5 -7q-16.5 -7 -29 -19.5q-12.5 -12.5 -19.5 -29q-7 -16.5 -7 -35.5q0 -19 7 -35.5q7 -16.5 19.5 -29q12.5 -12.5 29 -19.5t35.5 -7z" />
<glyph unicode="&#177;" horiz-adv-x="612" d="M97 486h166v167h86v-167h166v-85h-166v-147h-86v147h-166zM97 167h418v-86l-418 0z" />
<glyph unicode="&#178;" horiz-adv-x="459" d="M56 460l126 84q32 22 55 40.5q23 18.5 38 35q15 16.5 22.5 32.5q7.5 16 7.5 33q0 35 -25 52q-25 17 -73 17q-36 0 -71 -6.5q-35 -6.5 -62 -20.5l0 71q35 13 70 18.5q35 5.5 73 5.5q82 0 126.5 -31q44.5 -31 44.5 -91q0 -27 -9.5 -51q-9.5 -24 -29.5 -47q-20 -23 -51 -47q-31 -24 -74 -52l-70 -45v-1h239v-69l-337 0z" />
<glyph unicode="&#179;" horiz-adv-x="459" d="M126 637h75q48 0 73.5 14q25.5 14 25.5 45q0 32 -24.5 45.5q-24.5 13.5 -78.5 13.5q-37 0 -73 -5q-36 -5 -62 -16l0 68q32 12 75 16q43 4 82 4q87 0 125 -31.5q38 -31.5 38 -78.5q0 -43 -28 -65.5q-28 -22.5 -77 -34.5l0 -2q34 -5 56 -15q22 -10 35.5 -23.5q13.5 -13.5 19 -29.5q5.5 -16 5.5 -32q0 -33 -14.5 -57q-14.5 -24 -40 -40q-25.5 -16 -60.5 -24q-35 -8 -75 -8q-33 0 -72.5 4q-39.5 4 -74.5 17l0 69q32 -13 67.5 -18q35.5 -5 70.5 -5q64 0 89.5 18.5q25.5 18.5 25.5 47.5q0 36 -25 51q-25 15 -77 15l-81 0z" />
<glyph unicode="&#180;" horiz-adv-x="306" d="M133 773h124l-130 -144l-78 0z" />
<glyph unicode="&#181;" horiz-adv-x="597" d="M81 538h94v-316q0 -84 27.5 -115.5q27.5 -31.5 87.5 -31.5q62 0 97 37q35 37 35 110v316h94v-538h-88l-6 89q-23 -46 -62 -73q-39 -27 -102 -27q-49 0 -83 17l0 -190l-94 0z" />
<glyph unicode="&#182;" horiz-adv-x="581" d="M222 372q-42 0 -74 12.5q-32 12.5 -54 35q-22 22.5 -33 53.5q-11 31 -11 67q0 56 21.5 90.5q21.5 34.5 52.5 53q31 18.5 66 24.5q35 6 63 6h234v-898h-79v827h-106v-827l-80 0z" />
<glyph unicode="&#183;" horiz-adv-x="326" d="M163 292q-32 0 -50 17.5q-18 17.5 -18 50.5q0 33 18 50q18 17 50 17q68 0 68 -67q0 -68 -68 -68z" />
<glyph unicode="&#184;" horiz-adv-x="255" d="M108 -223q-26 0 -44 4q-18 4 -34 11l8 52q15 -6 29 -9q14 -3 31 -3q52 0 52 40q0 20 -13 30.5q-13 10.5 -43 10.5q-8 0 -17 -0.5q-9 -0.5 -15 -1.5l18 95h57l-11 -51q48 0 73.5 -20.5q25.5 -20.5 25.5 -62.5q0 -44 -30 -69.5t-87 -25.5z" />
<glyph unicode="&#185;" horiz-adv-x="459" d="M229 729l-123 -66l-32 61l172 92h65v-428l-82 0z" />
<glyph unicode="&#186;" horiz-adv-x="377" d="M189 381q-84 0 -121.5 44.5q-37.5 44.5 -37.5 125.5q0 81 38 125q38 44 121 44q84 0 121 -44q37 -44 37 -125q0 -81 -37.5 -125.5q-37.5 -44.5 -120.5 -44.5zt0 0zM189 442q42 0 64.5 24.5q22.5 24.5 22.5 84.5q0 59 -22.5 83.5q-22.5 24.5 -64.5 24.5q-42 0 -64.5 -24.5q-22.5 -24.5 -22.5 -83.5q0 -60 22.5 -84.5t64.5 -24.5z" />
<glyph unicode="&#187;" horiz-adv-x="561" d="M203 281l-132 214h94l132 -211l-135 -214h-91zM417 281l-132 214h94l132 -211l-135 -214l-91 0z" />
<glyph unicode="&#188;" horiz-adv-x="969" d="M677 714h78l-472 -714h-79zM206 627l-123 -66l-32 61l172 92h65v-428h-82zM501 156l252 271h94v-267h58v-66h-58v-95h-77v95h-269zM770 357h-1l-184 -198l185 0z" />
<glyph unicode="&#189;" horiz-adv-x="969" d="M650 714h78l-472 -714h-79zM201 627l-123 -66l-32 61l172 92h65v-428h-82zM572 71l126 84q32 22 55 40.5q23 18.5 38 35q15 16.5 22.5 32.5q7.5 16 7.5 33q0 35 -25 52q-25 17 -73 17q-36 0 -71 -6.5q-35 -6.5 -62 -20.5l0 71q35 13 70 18.5q35 5.5 73 5.5q82 0 126.5 -31q44.5 -31 44.5 -91q0 -27 -9.5 -51q-9.5 -24 -29.5 -47q-20 -23 -51 -47q-31 -24 -74 -52l-70 -45v-1h239v-69l-337 0z" />
<glyph unicode="&#190;" horiz-adv-x="969" d="M703 714h78l-472 -714h-79zM512 156l252 271h94v-267h58v-66h-58v-95h-77v95h-269zM781 357h-1l-184 -198h185zM119 535h75q48 0 73.5 14q25.5 14 25.5 45q0 32 -24.5 45.5q-24.5 13.5 -78.5 13.5q-37 0 -73 -5q-36 -5 -62 -16l0 68q32 12 75 16q43 4 82 4q87 0 125 -31.5q38 -31.5 38 -78.5q0 -43 -28 -65.5q-28 -22.5 -77 -34.5l0 -2q34 -5 56 -15q22 -10 35.5 -23.5q13.5 -13.5 19 -29.5q5.5 -16 5.5 -32q0 -33 -14.5 -57q-14.5 -24 -40 -40q-25.5 -16 -60.5 -24q-35 -8 -75 -8q-33 0 -72.5 4q-39.5 4 -74.5 17l0 69q32 -13 67.5 -18q35.5 -5 70.5 -5q64 0 89.5 18.5q25.5 18.5 25.5 47.5q0 36 -25 51q-25 15 -77 15l-81 0z" />
<glyph unicode="&#191;" horiz-adv-x="490" d="M291 543q32 0 50 -17q18 -17 18 -50q0 -32 -18 -50q-18 -18 -50 -18q-33 0 -50.5 18q-17.5 18 -17.5 50q0 67 68 67zt0 0zM336 312q0 -46 -14 -76.5q-14 -30.5 -34.5 -53q-20.5 -22.5 -44.5 -39q-24 -16.5 -44.5 -36q-20.5 -19.5 -34.5 -44q-14 -24.5 -14 -61.5q0 -52 30.5 -79.5q30.5 -27.5 98.5 -27.5q51 0 89.5 14q38.5 14 70.5 34l0 -104q-36 -17 -79.5 -25.5q-43.5 -8.5 -89.5 -8.5q-116 0 -167.5 47.5q-51.5 47.5 -51.5 140.5q0 51 14.5 84.5q14.5 33.5 36 57.5q21.5 24 47 41.5q25.5 17.5 47 36q21.5 18.5 36 41.5q14.5 23 14.5 58z" />
<glyph unicode="&#192;" horiz-adv-x="653" d="M273 714h108l252 -714h-105l-63 186h-282l-63 -186h-100zM212 272h224l-112 330zM151 928h128l90 -143l-82 0z" />
<glyph unicode="&#193;" horiz-adv-x="653" d="M273 714h108l252 -714h-105l-63 186h-282l-63 -186h-100zM212 272h224l-112 330zM371 928h126l-138 -143l-80 0z" />
<glyph unicode="&#194;" horiz-adv-x="653" d="M273 714h108l252 -714h-105l-63 186h-282l-63 -186h-100zM212 272h224l-112 330zM273 928h106l118 -143h-83l-88 88l-90 -88l-81 0z" />
<glyph unicode="&#195;" horiz-adv-x="653" d="M273 714h108l252 -714h-105l-63 186h-282l-63 -186h-100zM212 272h224l-112 330zM158 802q3 48 30.5 74.5q27.5 26.5 65.5 26.5q20 0 38 -5.5q18 -5.5 40 -15.5q23 -10 36.5 -16q13.5 -6 27.5 -6q14 0 25.5 9q11.5 9 16.5 32l56 -11q-5 -48 -32 -74q-27 -26 -62 -26q-19 0 -35 3.5q-16 3.5 -46 17.5q-20 9 -33.5 15.5q-13.5 6.5 -26.5 6.5q-14 0 -26.5 -8.5q-12.5 -8.5 -17.5 -33.5z" />
<glyph unicode="&#196;" horiz-adv-x="653" d="M273 714h108l252 -714h-105l-63 186h-282l-63 -186h-100zM212 272h224l-112 330zM221 799q-60 0 -60 58q0 57 60 57q61 0 61 -57q0 -58 -61 -58zt0 0zM430 799q-60 0 -60 58q0 57 60 57q61 0 61 -57q0 -58 -61 -58z" />
<glyph unicode="&#197;" horiz-adv-x="653" d="M273 714h108l252 -714h-105l-63 186h-282l-63 -186h-100zM212 272h224l-112 330zM223 857q0 45 29.5 73.5q29.5 28.5 74.5 28.5q45 0 74 -28.5q29 -28.5 29 -73.5q0 -45 -29 -73.5q-29 -28.5 -74 -28.5q-45 0 -74.5 28.5q-29.5 28.5 -29.5 73.5zt0 0zM277 857q0 -24 13.5 -37q13.5 -13 36.5 -13q23 0 36.5 13q13.5 13 13.5 37q0 23 -13.5 36.5q-13.5 13.5 -36.5 13.5q-23 0 -36.5 -13.5t-13.5 -36.5z" />
<glyph unicode="&#198;" horiz-adv-x="954" d="M468 186h-243l-101 -186h-104l396 714h482v-89h-330v-217h289v-85h-289v-234h330v-89h-430zM468 271v359l-196 -359z" />
<glyph unicode="&#199;" horiz-adv-x="586" d="M342 -223q-26 0 -46.5 4q-20.5 4 -35.5 11l7 53q31 -12 65 -12q29 0 41 10q12 10 12 29q0 20 -13 30q-13 10 -45 10q-10 0 -18 -0.5q-8 -0.5 -14 -1.5l15 82q-65 6 -113.5 30.5q-48.5 24.5 -81 69.5q-32.5 45 -48.5 111.5q-16 66.5 -16 158.5q0 191 79.5 277q79.5 86 231.5 86q38 0 69.5 -4.5q31.5 -4.5 54.5 -9.5q26 -6 48 -14l0 -104q-29 18 -71 29q-42 11 -99 11q-52 0 -91.5 -14.5q-39.5 -14.5 -66 -47q-26.5 -32.5 -40 -84q-13.5 -51.5 -13.5 -125.5q0 -77 14 -130.5q14 -53.5 41 -87q27 -33.5 67 -48.5q40 -15 92 -15q60 0 104 16.5q44 16.5 70 31.5l0 -103q-23 -11 -50 -19q-23 -7 -55 -12.5q-32 -5.5 -70 -5.5l-6 -34q50 0 76 -20.5q26 -20.5 26 -62.5q0 -44 -30 -69.5t-90 -25.5z" />
<glyph unicode="&#200;" horiz-adv-x="586" d="M101 714h430v-89h-331v-217h290v-85h-290v-234h331v-89h-430zM146 928h128l90 -143l-82 0z" />
<glyph unicode="&#201;" horiz-adv-x="586" d="M101 714h430v-89h-331v-217h290v-85h-290v-234h331v-89h-430zM360 928h126l-138 -143l-80 0z" />
<glyph unicode="&#202;" horiz-adv-x="586" d="M101 714h430v-89h-331v-217h290v-85h-290v-234h331v-89h-430zM262 928h106l118 -143h-83l-88 88l-90 -88l-81 0z" />
<glyph unicode="&#203;" horiz-adv-x="586" d="M101 714h430v-89h-331v-217h290v-85h-290v-234h331v-89h-430zM211 799q-60 0 -60 58q0 57 60 57q61 0 61 -57q0 -58 -61 -58zt0 0zM420 799q-60 0 -60 58q0 57 60 57q61 0 61 -57q0 -58 -61 -58z" />
<glyph unicode="&#204;" horiz-adv-x="337" d="M119 714h99v-714h-99zM-8 928h128l90 -143l-82 0z" />
<glyph unicode="&#205;" horiz-adv-x="337" d="M119 714h99v-714h-99zM220 928h126l-138 -143l-80 0z" />
<glyph unicode="&#206;" horiz-adv-x="337" d="M119 714h99v-714h-99zM115 928h106l118 -143h-83l-88 88l-90 -88l-81 0z" />
<glyph unicode="&#207;" horiz-adv-x="337" d="M119 714h99v-714h-99zM63 799q-60 0 -60 58q0 57 60 57q61 0 61 -57q0 -58 -61 -58zt0 0zM272 799q-60 0 -60 58q0 57 60 57q61 0 61 -57q0 -58 -61 -58z" />
<glyph unicode="&#208;" horiz-adv-x="704" d="M16 400h95v309q30 2 63 5q29 2 64.5 4q35.5 2 71.5 2q92 0 157 -19.5q65 -19.5 106.5 -62q41.5 -42.5 60.5 -110q19 -67.5 19 -163.5q0 -97 -21.5 -167q-21.5 -70 -64.5 -115.5q-43 -45.5 -108 -67q-65 -21.5 -153 -21.5q-35 0 -69.5 1.5q-34.5 1.5 -62.5 3.5q-33 3 -63 6l0 320h-95zM550 365q0 75 -12.5 125q-12.5 50 -40.5 80.5q-28 30.5 -74 43.5q-46 13 -112 13q-21 0 -39 -1q-18 -1 -32 -2q-16 -1 -29 -2l0 -222h165v-75h-165v-233q13 -2 28 -3q13 -1 30.5 -1.5q17.5 -0.5 38.5 -0.5q63 0 108.5 15q45.5 15 75.5 48q30 33 44 86t14 129z" />
<glyph unicode="&#209;" horiz-adv-x="755" d="M101 714h112l284 -455q12 -21 23 -40.5q11 -19.5 19 -34.5q10 -18 17 -34l2 0q-1 16 -2 34q-1 15 -1.5 34.5q-0.5 19.5 -0.5 40.5v455h100v-714h-113l-283 455q-14 23 -24.5 42.5q-10.5 19.5 -18.5 34.5l-16 32h-2q0 -14 1 -32q1 -15 1.5 -34.5q0.5 -19.5 0.5 -42.5v-455h-99zM209 802q3 48 30.5 74.5q27.5 26.5 65.5 26.5q20 0 38 -5.5q18 -5.5 40 -15.5q23 -10 36.5 -16q13.5 -6 27.5 -6q14 0 25.5 9q11.5 9 16.5 32l56 -11q-5 -48 -32 -74q-27 -26 -62 -26q-19 0 -35 3.5q-16 3.5 -46 17.5q-20 9 -33.5 15.5q-13.5 6.5 -26.5 6.5q-14 0 -26.5 -8.5q-12.5 -8.5 -17.5 -33.5z" />
<glyph unicode="&#210;" horiz-adv-x="724" d="M362 -11q-75 0 -133 21q-58 21 -97.5 66q-39.5 45 -60 114.5q-20.5 69.5 -20.5 166.5q0 193 80 280.5q80 87.5 231 87.5q78 0 136 -20q58 -20 97 -64.5q39 -44.5 58.5 -114.5q19.5 -70 19.5 -169q0 -97 -20.5 -166.5q-20.5 -69.5 -60 -114.5q-39.5 -45 -97.5 -66q-58 -21 -133 -21zt0 0zM362 79q51 0 90 14.5q39 14.5 65.5 47.5q26.5 33 40 86q13.5 53 13.5 130q0 77 -13.5 130q-13.5 53 -40 86q-26.5 33 -65.5 47.5q-39 14.5 -90 14.5q-50 0 -89 -15q-39 -15 -65.5 -48q-26.5 -33 -40.5 -86q-14 -53 -14 -129q0 -76 14 -129q14 -53 40.5 -86q26.5 -33 65.5 -48q39 -15 89 -15zt0 0zM192 928h128l90 -143l-82 0z" />
<glyph unicode="&#211;" horiz-adv-x="724" d="M362 -11q-75 0 -133 21q-58 21 -97.5 66q-39.5 45 -60 114.5q-20.5 69.5 -20.5 166.5q0 193 80 280.5q80 87.5 231 87.5q78 0 136 -20q58 -20 97 -64.5q39 -44.5 58.5 -114.5q19.5 -70 19.5 -169q0 -97 -20.5 -166.5q-20.5 -69.5 -60 -114.5q-39.5 -45 -97.5 -66q-58 -21 -133 -21zt0 0zM362 79q51 0 90 14.5q39 14.5 65.5 47.5q26.5 33 40 86q13.5 53 13.5 130q0 77 -13.5 130q-13.5 53 -40 86q-26.5 33 -65.5 47.5q-39 14.5 -90 14.5q-50 0 -89 -15q-39 -15 -65.5 -48q-26.5 -33 -40.5 -86q-14 -53 -14 -129q0 -76 14 -129q14 -53 40.5 -86q26.5 -33 65.5 -48q39 -15 89 -15zt0 0zM407 928h126l-138 -143l-80 0z" />
<glyph unicode="&#212;" horiz-adv-x="724" d="M362 -11q-75 0 -133 21q-58 21 -97.5 66q-39.5 45 -60 114.5q-20.5 69.5 -20.5 166.5q0 193 80 280.5q80 87.5 231 87.5q78 0 136 -20q58 -20 97 -64.5q39 -44.5 58.5 -114.5q19.5 -70 19.5 -169q0 -97 -20.5 -166.5q-20.5 -69.5 -60 -114.5q-39.5 -45 -97.5 -66q-58 -21 -133 -21zt0 0zM362 79q51 0 90 14.5q39 14.5 65.5 47.5q26.5 33 40 86q13.5 53 13.5 130q0 77 -13.5 130q-13.5 53 -40 86q-26.5 33 -65.5 47.5q-39 14.5 -90 14.5q-50 0 -89 -15q-39 -15 -65.5 -48q-26.5 -33 -40.5 -86q-14 -53 -14 -129q0 -76 14 -129q14 -53 40.5 -86q26.5 -33 65.5 -48q39 -15 89 -15zt0 0zM309 928h106l118 -143h-83l-88 88l-90 -88l-81 0z" />
<glyph unicode="&#213;" horiz-adv-x="724" d="M362 -11q-75 0 -133 21q-58 21 -97.5 66q-39.5 45 -60 114.5q-20.5 69.5 -20.5 166.5q0 193 80 280.5q80 87.5 231 87.5q78 0 136 -20q58 -20 97 -64.5q39 -44.5 58.5 -114.5q19.5 -70 19.5 -169q0 -97 -20.5 -166.5q-20.5 -69.5 -60 -114.5q-39.5 -45 -97.5 -66q-58 -21 -133 -21zt0 0zM362 79q51 0 90 14.5q39 14.5 65.5 47.5q26.5 33 40 86q13.5 53 13.5 130q0 77 -13.5 130q-13.5 53 -40 86q-26.5 33 -65.5 47.5q-39 14.5 -90 14.5q-50 0 -89 -15q-39 -15 -65.5 -48q-26.5 -33 -40.5 -86q-14 -53 -14 -129q0 -76 14 -129q14 -53 40.5 -86q26.5 -33 65.5 -48q39 -15 89 -15zt0 0zM194 802q3 48 30.5 74.5q27.5 26.5 65.5 26.5q20 0 38 -5.5q18 -5.5 40 -15.5q23 -10 36.5 -16q13.5 -6 27.5 -6q14 0 25.5 9q11.5 9 16.5 32l56 -11q-5 -48 -32 -74q-27 -26 -62 -26q-19 0 -35 3.5q-16 3.5 -46 17.5q-20 9 -33.5 15.5q-13.5 6.5 -26.5 6.5q-14 0 -26.5 -8.5q-12.5 -8.5 -17.5 -33.5z" />
<glyph unicode="&#214;" horiz-adv-x="724" d="M362 -11q-75 0 -133 21q-58 21 -97.5 66q-39.5 45 -60 114.5q-20.5 69.5 -20.5 166.5q0 193 80 280.5q80 87.5 231 87.5q78 0 136 -20q58 -20 97 -64.5q39 -44.5 58.5 -114.5q19.5 -70 19.5 -169q0 -97 -20.5 -166.5q-20.5 -69.5 -60 -114.5q-39.5 -45 -97.5 -66q-58 -21 -133 -21zt0 0zM362 79q51 0 90 14.5q39 14.5 65.5 47.5q26.5 33 40 86q13.5 53 13.5 130q0 77 -13.5 130q-13.5 53 -40 86q-26.5 33 -65.5 47.5q-39 14.5 -90 14.5q-50 0 -89 -15q-39 -15 -65.5 -48q-26.5 -33 -40.5 -86q-14 -53 -14 -129q0 -76 14 -129q14 -53 40.5 -86q26.5 -33 65.5 -48q39 -15 89 -15zt0 0zM257 799q-60 0 -60 58q0 57 60 57q61 0 61 -57q0 -58 -61 -58zt0 0zM466 799q-60 0 -60 58q0 57 60 57q61 0 61 -57q0 -58 -61 -58z" />
<glyph unicode="&#215;" horiz-adv-x="612" d="M114 233l134 134l-134 134l58 58l133 -135l135 135l57 -58l-134 -134l134 -134l-57 -57l-135 133l-133 -133z" />
<glyph unicode="&#216;" horiz-adv-x="724" d="M362 -11q-114 0 -186 47l-52 -74l-52 38l56 80q-38 45 -57.5 113q-19.5 68 -19.5 164q0 193 80 280.5q80 87.5 231 87.5q57 0 104 -11q47 -11 83 -34l51 72l53 -38l-55 -78q38 -45 56.5 -113.5q18.5 -68.5 18.5 -165.5q0 -97 -20.5 -166.5q-20.5 -69.5 -60 -114.5q-39.5 -45 -97.5 -66q-58 -21 -133 -21zt0 0zM153 357q0 -124 37 -189l302 430q-50 37 -130 37q-50 0 -89 -15q-39 -15 -65.5 -48q-26.5 -33 -40.5 -86q-14 -53 -14 -129zt0 0zM362 79q51 0 90 14.5q39 14.5 65.5 47.5q26.5 33 40 86q13.5 53 13.5 130q0 63 -9.5 109.5q-9.5 46.5 -26.5 79.5l-302 -429q25 -20 57.5 -29t71.5 -9z" />
<glyph unicode="&#217;" horiz-adv-x="683" d="M342 -11q-68 0 -117 15.5q-49 15.5 -81 50q-32 34.5 -47.5 89q-15.5 54.5 -15.5 132.5v438h99v-433q0 -58 9 -96.5q9 -38.5 28.5 -61.5q19.5 -23 50 -32.5q30.5 -9.5 74.5 -9.5q44 0 74.5 9.5q30.5 9.5 50 32q19.5 22.5 28 61q8.5 38.5 8.5 97.5v433h99v-438q0 -77 -15.5 -131.5q-15.5 -54.5 -47.5 -89q-32 -34.5 -81 -50.5q-49 -16 -116 -16zt0 0zM172 928h128l90 -143l-82 0z" />
<glyph unicode="&#218;" horiz-adv-x="683" d="M342 -11q-68 0 -117 15.5q-49 15.5 -81 50q-32 34.5 -47.5 89q-15.5 54.5 -15.5 132.5v438h99v-433q0 -58 9 -96.5q9 -38.5 28.5 -61.5q19.5 -23 50 -32.5q30.5 -9.5 74.5 -9.5q44 0 74.5 9.5q30.5 9.5 50 32q19.5 22.5 28 61q8.5 38.5 8.5 97.5v433h99v-438q0 -77 -15.5 -131.5q-15.5 -54.5 -47.5 -89q-32 -34.5 -81 -50.5q-49 -16 -116 -16zt0 0zM387 928h126l-138 -143l-80 0z" />
<glyph unicode="&#219;" horiz-adv-x="683" d="M342 -11q-68 0 -117 15.5q-49 15.5 -81 50q-32 34.5 -47.5 89q-15.5 54.5 -15.5 132.5v438h99v-433q0 -58 9 -96.5q9 -38.5 28.5 -61.5q19.5 -23 50 -32.5q30.5 -9.5 74.5 -9.5q44 0 74.5 9.5q30.5 9.5 50 32q19.5 22.5 28 61q8.5 38.5 8.5 97.5v433h99v-438q0 -77 -15.5 -131.5q-15.5 -54.5 -47.5 -89q-32 -34.5 -81 -50.5q-49 -16 -116 -16zt0 0zM288 928h106l118 -143h-83l-88 88l-90 -88l-81 0z" />
<glyph unicode="&#220;" horiz-adv-x="683" d="M342 -11q-68 0 -117 15.5q-49 15.5 -81 50q-32 34.5 -47.5 89q-15.5 54.5 -15.5 132.5v438h99v-433q0 -58 9 -96.5q9 -38.5 28.5 -61.5q19.5 -23 50 -32.5q30.5 -9.5 74.5 -9.5q44 0 74.5 9.5q30.5 9.5 50 32q19.5 22.5 28 61q8.5 38.5 8.5 97.5v433h99v-438q0 -77 -15.5 -131.5q-15.5 -54.5 -47.5 -89q-32 -34.5 -81 -50.5q-49 -16 -116 -16zt0 0zM237 799q-60 0 -60 58q0 57 60 57q61 0 61 -57q0 -58 -61 -58zt0 0zM446 799q-60 0 -60 58q0 57 60 57q61 0 61 -57q0 -58 -61 -58z" />
<glyph unicode="&#221;" horiz-adv-x="622" d="M267 275l-247 439h113l184 -334l177 334h108l-236 -439v-275h-99zM356 928h126l-138 -143l-80 0z" />
<glyph unicode="&#222;" horiz-adv-x="632" d="M101 714h99v-106q23 2 49 3q26 1 54 1q76 0 129.5 -14.5q53.5 -14.5 86.5 -44.5q33 -30 48 -75.5q15 -45.5 15 -107.5q0 -126 -66.5 -189.5q-66.5 -63.5 -212.5 -63.5q-43 0 -70 2.5q-27 2.5 -33 3.5l0 -123h-99zM479 370q0 40 -8.5 68.5q-8.5 28.5 -29 46.5q-20.5 18 -54.5 26q-34 8 -84 8q-43 0 -70 -2q-27 -2 -33 -3l0 -299q6 0 33 -2q27 -2 70 -2q97 0 136.5 37.5t39.5 121.5z" />
<glyph unicode="&#223;" horiz-adv-x="627" d="M81 525q0 126 60 190.5q60 64.5 177 64.5q108 0 163 -52.5q55 -52.5 55 -144.5q0 -62 -27 -105q-27 -43 -78 -63l0 -3q72 -9 106.5 -60q34.5 -51 34.5 -134q0 -119 -54.5 -174q-54.5 -55 -169.5 -55q-33 0 -57.5 3.5q-24.5 3.5 -43.5 8.5l0 88q16 -5 38 -8.5q22 -3.5 54 -3.5q68 0 100.5 34q32.5 34 32.5 112q0 75 -32.5 109q-32.5 34 -99.5 34h-64v81h53q49 0 78 31.5q29 31.5 29 94.5q0 58 -31 88.5q-31 30.5 -91 30.5q-70 0 -103.5 -39.5q-33.5 -39.5 -33.5 -127.5v-525l-96 0z" />
<glyph unicode="&#224;" horiz-adv-x="546" d="M218 -11q-83 0 -125.5 41.5q-42.5 41.5 -42.5 119.5q0 40 11 71q11 31 36.5 51q25.5 20 66 30.5q40.5 10.5 100.5 10.5h112v46q0 56 -26.5 79.5q-26.5 23.5 -96.5 23.5q-48 0 -90 -13q-42 -13 -70 -32l0 98q29 14 75.5 24.5q46.5 10.5 97.5 10.5q56 0 95 -10.5q39 -10.5 63 -33.5q24 -23 35 -59.5q11 -36.5 11 -88.5v-358h-85l-5 92q-19 -43 -58.5 -73q-39.5 -30 -103.5 -30zt0 0zM244 72q61 0 96.5 36q35.5 36 35.5 104v36h-105q-71 0 -97.5 -23q-26.5 -23 -26.5 -70q0 -41 23 -62q23 -21 74 -21zt0 0zM118 773h126l82 -144l-80 0z" />
<glyph unicode="&#225;" horiz-adv-x="546" d="M218 -11q-83 0 -125.5 41.5q-42.5 41.5 -42.5 119.5q0 40 11 71q11 31 36.5 51q25.5 20 66 30.5q40.5 10.5 100.5 10.5h112v46q0 56 -26.5 79.5q-26.5 23.5 -96.5 23.5q-48 0 -90 -13q-42 -13 -70 -32l0 98q29 14 75.5 24.5q46.5 10.5 97.5 10.5q56 0 95 -10.5q39 -10.5 63 -33.5q24 -23 35 -59.5q11 -36.5 11 -88.5v-358h-85l-5 92q-19 -43 -58.5 -73q-39.5 -30 -103.5 -30zt0 0zM244 72q61 0 96.5 36q35.5 36 35.5 104v36h-105q-71 0 -97.5 -23q-26.5 -23 -26.5 -70q0 -41 23 -62q23 -21 74 -21zt0 0zM316 773h124l-130 -144l-78 0z" />
<glyph unicode="&#226;" horiz-adv-x="546" d="M218 -11q-83 0 -125.5 41.5q-42.5 41.5 -42.5 119.5q0 40 11 71q11 31 36.5 51q25.5 20 66 30.5q40.5 10.5 100.5 10.5h112v46q0 56 -26.5 79.5q-26.5 23.5 -96.5 23.5q-48 0 -90 -13q-42 -13 -70 -32l0 98q29 14 75.5 24.5q46.5 10.5 97.5 10.5q56 0 95 -10.5q39 -10.5 63 -33.5q24 -23 35 -59.5q11 -36.5 11 -88.5v-358h-85l-5 92q-19 -43 -58.5 -73q-39.5 -30 -103.5 -30zt0 0zM244 72q61 0 96.5 36q35.5 36 35.5 104v36h-105q-71 0 -97.5 -23q-26.5 -23 -26.5 -70q0 -41 23 -62q23 -21 74 -21zt0 0zM226 773h104l113 -144h-82l-83 90l-85 -90l-80 0z" />
<glyph unicode="&#227;" horiz-adv-x="546" d="M218 -11q-83 0 -125.5 41.5q-42.5 41.5 -42.5 119.5q0 40 11 71q11 31 36.5 51q25.5 20 66 30.5q40.5 10.5 100.5 10.5h112v46q0 56 -26.5 79.5q-26.5 23.5 -96.5 23.5q-48 0 -90 -13q-42 -13 -70 -32l0 98q29 14 75.5 24.5q46.5 10.5 97.5 10.5q56 0 95 -10.5q39 -10.5 63 -33.5q24 -23 35 -59.5q11 -36.5 11 -88.5v-358h-85l-5 92q-19 -43 -58.5 -73q-39.5 -30 -103.5 -30zt0 0zM244 72q61 0 96.5 36q35.5 36 35.5 104v36h-105q-71 0 -97.5 -23q-26.5 -23 -26.5 -70q0 -41 23 -62q23 -21 74 -21zt0 0zM112 647q3 48 27.5 74q24.5 26 62.5 26q20 0 37.5 -6q17.5 -6 39.5 -16q23 -10 35.5 -16q12.5 -6 26.5 -6q15 0 23.5 9.5q8.5 9.5 13.5 33.5l56 -12q-5 -48 -29.5 -74q-24.5 -26 -59.5 -26q-9 0 -17 0.5q-8 0.5 -17 3q-9 2.5 -19.5 6.5q-10.5 4 -25.5 12q-20 9 -32.5 15.5q-12.5 6.5 -26.5 6.5q-14 0 -24 -9q-10 -9 -15 -35z" />
<glyph unicode="&#228;" horiz-adv-x="546" d="M218 -11q-83 0 -125.5 41.5q-42.5 41.5 -42.5 119.5q0 40 11 71q11 31 36.5 51q25.5 20 66 30.5q40.5 10.5 100.5 10.5h112v46q0 56 -26.5 79.5q-26.5 23.5 -96.5 23.5q-48 0 -90 -13q-42 -13 -70 -32l0 98q29 14 75.5 24.5q46.5 10.5 97.5 10.5q56 0 95 -10.5q39 -10.5 63 -33.5q24 -23 35 -59.5q11 -36.5 11 -88.5v-358h-85l-5 92q-19 -43 -58.5 -73q-39.5 -30 -103.5 -30zt0 0zM244 72q61 0 96.5 36q35.5 36 35.5 104v36h-105q-71 0 -97.5 -23q-26.5 -23 -26.5 -70q0 -41 23 -62q23 -21 74 -21zt0 0zM180 646q-59 0 -59 55q0 55 59 55q58 0 58 -55q0 -55 -58 -55zt0 0zM376 646q-58 0 -58 55q0 55 58 55q59 0 59 -55q0 -55 -59 -55z" />
<glyph unicode="&#229;" horiz-adv-x="546" d="M218 -11q-83 0 -125.5 41.5q-42.5 41.5 -42.5 119.5q0 40 11 71q11 31 36.5 51q25.5 20 66 30.5q40.5 10.5 100.5 10.5h112v46q0 56 -26.5 79.5q-26.5 23.5 -96.5 23.5q-48 0 -90 -13q-42 -13 -70 -32l0 98q29 14 75.5 24.5q46.5 10.5 97.5 10.5q56 0 95 -10.5q39 -10.5 63 -33.5q24 -23 35 -59.5q11 -36.5 11 -88.5v-358h-85l-5 92q-19 -43 -58.5 -73q-39.5 -30 -103.5 -30zt0 0zM244 72q61 0 96.5 36q35.5 36 35.5 104v36h-105q-71 0 -97.5 -23q-26.5 -23 -26.5 -70q0 -41 23 -62q23 -21 74 -21zt0 0zM179 701q0 45 28 72q28 27 74 27q45 0 73 -27q28 -27 28 -72q0 -45 -28 -72.5q-28 -27.5 -73 -27.5q-46 0 -74 27.5q-28 27.5 -28 72.5zt0 0zM232 701q0 -23 13 -36q13 -13 36 -13q22 0 35 13q13 13 13 36q0 22 -13 35.5q-13 13.5 -35 13.5q-23 0 -36 -13.5t-13 -35.5z" />
<glyph unicode="&#230;" horiz-adv-x="877" d="M625 -11q-73 0 -123 24q-50 24 -79 76q-31 -51 -80.5 -75.5q-49.5 -24.5 -115.5 -24.5q-90 0 -133.5 41.5q-43.5 41.5 -43.5 119.5q0 40 11 71q11 31 36.5 51q25.5 20 67 30.5q41.5 10.5 101.5 10.5h114v46q0 56 -27 79.5q-27 23.5 -98 23.5q-50 0 -92 -13q-42 -13 -70 -32l0 98q29 14 76 24.5q47 10.5 99 10.5q69 0 111.5 -17.5q42.5 -17.5 63.5 -55.5q29 37 71 55q42 18 94 18q113 0 166 -63q53 -63 53 -199v-43h-353q2 -90 40.5 -131.5q38.5 -41.5 117.5 -41.5q49 0 91.5 14q42.5 14 69.5 37l0 -94q-23 -17 -65 -28.5q-42 -11.5 -103 -11.5zt0 0zM245 72q63 0 99 36q36 36 36 104v36h-107q-73 0 -99.5 -22.5q-26.5 -22.5 -26.5 -70.5q0 -41 23 -62q23 -21 75 -21zt0 0zM608 469q-63 0 -97.5 -37q-34.5 -37 -36.5 -121l259 0q0 76 -27 117t-98 41z" />
<glyph unicode="&#231;" horiz-adv-x="484" d="M279 -223q-26 0 -44 4q-18 4 -34 11l8 52q15 -6 29 -9q14 -3 31 -3q52 0 52 40q0 20 -13 30.5q-13 10.5 -43 10.5q-8 0 -17 -0.5q-9 -0.5 -15 -1.5l15 82q-101 13 -149.5 79.5q-48.5 66.5 -48.5 201.5q0 142 63.5 209q63.5 67 185.5 67q56 0 92.5 -10.5q36.5 -10.5 49.5 -16.5l0 -101q-23 17 -57 28.5q-34 11.5 -78 11.5q-78 0 -118.5 -44q-40.5 -44 -40.5 -144q0 -107 42 -153q42 -46 127 -46q38 0 75 13q37 13 58 30l0 -97q-14 -8 -50 -20q-36 -12 -93 -12h-2l-7 -34q48 0 73.5 -20.5q25.5 -20.5 25.5 -62.5q0 -44 -30 -69.5t-87 -25.5z" />
<glyph unicode="&#232;" horiz-adv-x="561" d="M302 -11q-130 0 -191 68q-61 68 -61 216q0 141 62.5 209q62.5 68 173.5 68q117 0 171 -63q54 -63 54 -199v-43h-367q2 -90 41.5 -131.5q39.5 -41.5 124.5 -41.5q51 0 95.5 16.5q44.5 16.5 71.5 40.5l0 -93q-26 -17 -69 -32q-43 -15 -106 -15zt0 0zM286 469q-68 0 -103.5 -37q-35.5 -37 -38.5 -121l273 0q0 38 -6.5 67.5q-6.5 29.5 -21.5 49.5q-15 20 -40 30.5q-25 10.5 -63 10.5zt0 0zM123 773h126l82 -144l-80 0z" />
<glyph unicode="&#233;" horiz-adv-x="561" d="M302 -11q-130 0 -191 68q-61 68 -61 216q0 141 62.5 209q62.5 68 173.5 68q117 0 171 -63q54 -63 54 -199v-43h-367q2 -90 41.5 -131.5q39.5 -41.5 124.5 -41.5q51 0 95.5 16.5q44.5 16.5 71.5 40.5l0 -93q-26 -17 -69 -32q-43 -15 -106 -15zt0 0zM286 469q-68 0 -103.5 -37q-35.5 -37 -38.5 -121l273 0q0 38 -6.5 67.5q-6.5 29.5 -21.5 49.5q-15 20 -40 30.5q-25 10.5 -63 10.5zt0 0zM322 773h124l-130 -144l-78 0z" />
<glyph unicode="&#234;" horiz-adv-x="561" d="M302 -11q-130 0 -191 68q-61 68 -61 216q0 141 62.5 209q62.5 68 173.5 68q117 0 171 -63q54 -63 54 -199v-43h-367q2 -90 41.5 -131.5q39.5 -41.5 124.5 -41.5q51 0 95.5 16.5q44.5 16.5 71.5 40.5l0 -93q-26 -17 -69 -32q-43 -15 -106 -15zt0 0zM286 469q-68 0 -103.5 -37q-35.5 -37 -38.5 -121l273 0q0 38 -6.5 67.5q-6.5 29.5 -21.5 49.5q-15 20 -40 30.5q-25 10.5 -63 10.5zt0 0zM232 773h104l113 -144h-82l-83 90l-85 -90l-80 0z" />
<glyph unicode="&#235;" horiz-adv-x="561" d="M302 -11q-130 0 -191 68q-61 68 -61 216q0 141 62.5 209q62.5 68 173.5 68q117 0 171 -63q54 -63 54 -199v-43h-367q2 -90 41.5 -131.5q39.5 -41.5 124.5 -41.5q51 0 95.5 16.5q44.5 16.5 71.5 40.5l0 -93q-26 -17 -69 -32q-43 -15 -106 -15zt0 0zM286 469q-68 0 -103.5 -37q-35.5 -37 -38.5 -121l273 0q0 38 -6.5 67.5q-6.5 29.5 -21.5 49.5q-15 20 -40 30.5q-25 10.5 -63 10.5zt0 0zM185 646q-59 0 -59 55q0 55 59 55q58 0 58 -55q0 -55 -58 -55zt0 0zM381 646q-58 0 -58 55q0 55 58 55q59 0 59 -55q0 -55 -59 -55z" />
<glyph unicode="&#236;" horiz-adv-x="296" d="M100 538h95v-538h-95zM-20 773h126l82 -144l-80 0z" />
<glyph unicode="&#237;" horiz-adv-x="296" d="M100 538h95v-538h-95zM192 773h124l-130 -144l-78 0z" />
<glyph unicode="&#238;" horiz-adv-x="296" d="M100 538h95v-538h-95zM96 773h104l113 -144h-82l-83 90l-85 -90l-80 0z" />
<glyph unicode="&#239;" horiz-adv-x="296" d="M100 538h95v-538h-95zM50 646q-59 0 -59 55q0 55 59 55q58 0 58 -55q0 -55 -58 -55zt0 0zM246 646q-58 0 -58 55q0 55 58 55q59 0 59 -55q0 -55 -59 -55z" />
<glyph unicode="&#240;" horiz-adv-x="597" d="M156 627l93 50q-61 33 -131 48l32 61q101 -26 173 -69l133 71l23 -47l-107 -58q90 -71 129.5 -174q39.5 -103 39.5 -231q0 -75 -18.5 -130q-18.5 -55 -52 -90q-33.5 -35 -79 -52q-45.5 -17 -99.5 -17q-123 0 -182.5 72q-59.5 72 -59.5 200q0 129 58 196.5q58 67.5 167 67.5q17 0 36.5 -2.5q19.5 -2.5 39.5 -10q20 -7.5 39 -21q19 -13.5 36 -35.5l4 2q-15 57 -49 104q-34 47 -82 82l-119 -63zM296 74q70 0 109 43q39 43 39 144q0 96 -35 137.5q-35 41.5 -113 41.5q-36 0 -63.5 -9q-27.5 -9 -46.5 -30q-19 -21 -29 -55.5q-10 -34.5 -10 -84.5q0 -51 10.5 -86.5q10.5 -35.5 30 -58q19.5 -22.5 47 -32.5t61.5 -10z" />
<glyph unicode="&#241;" horiz-adv-x="597" d="M81 538h88l6 -90q23 48 62.5 75q39.5 27 102.5 27q91 0 136 -47q45 -47 45 -155v-348h-94v316q0 42 -7 70q-7 28 -21.5 45q-14.5 17 -37 24q-22.5 7 -54.5 7q-62 0 -97 -36.5q-35 -36.5 -35 -109.5v-316h-94zM138 647q3 48 27.5 74q24.5 26 62.5 26q20 0 37.5 -6q17.5 -6 39.5 -16q23 -10 35.5 -16q12.5 -6 26.5 -6q15 0 23.5 9.5q8.5 9.5 13.5 33.5l56 -12q-5 -48 -29.5 -74q-24.5 -26 -59.5 -26q-9 0 -17 0.5q-8 0.5 -17 3q-9 2.5 -19.5 6.5q-10.5 4 -25.5 12q-20 9 -32.5 15.5q-12.5 6.5 -26.5 6.5q-14 0 -24 -9q-10 -9 -15 -35z" />
<glyph unicode="&#242;" horiz-adv-x="581" d="M291 -11q-118 0 -179.5 66q-61.5 66 -61.5 214q0 143 64 212q64 69 177 69q60 0 105 -15.5q45 -15.5 75 -49.5q30 -34 45 -87.5q15 -53.5 15 -128.5q0 -148 -61.5 -214q-61.5 -66 -178.5 -66zt0 0zM291 75q36 0 62.5 10q26.5 10 44.5 32.5q18 22.5 27 59.5q9 37 9 92q0 54 -9 91q-9 37 -26.5 59.5q-17.5 22.5 -44.5 32.5q-27 10 -63 10q-69 0 -106.5 -43.5q-37.5 -43.5 -37.5 -149.5q0 -55 9 -92q9 -37 27 -59.5q18 -22.5 45 -32.5q27 -10 63 -10zt0 0zM130 773h126l82 -144l-80 0z" />
<glyph unicode="&#243;" horiz-adv-x="581" d="M291 -11q-118 0 -179.5 66q-61.5 66 -61.5 214q0 143 64 212q64 69 177 69q60 0 105 -15.5q45 -15.5 75 -49.5q30 -34 45 -87.5q15 -53.5 15 -128.5q0 -148 -61.5 -214q-61.5 -66 -178.5 -66zt0 0zM291 75q36 0 62.5 10q26.5 10 44.5 32.5q18 22.5 27 59.5q9 37 9 92q0 54 -9 91q-9 37 -26.5 59.5q-17.5 22.5 -44.5 32.5q-27 10 -63 10q-69 0 -106.5 -43.5q-37.5 -43.5 -37.5 -149.5q0 -55 9 -92q9 -37 27 -59.5q18 -22.5 45 -32.5q27 -10 63 -10zt0 0zM329 773h124l-130 -144l-78 0z" />
<glyph unicode="&#244;" horiz-adv-x="581" d="M291 -11q-118 0 -179.5 66q-61.5 66 -61.5 214q0 143 64 212q64 69 177 69q60 0 105 -15.5q45 -15.5 75 -49.5q30 -34 45 -87.5q15 -53.5 15 -128.5q0 -148 -61.5 -214q-61.5 -66 -178.5 -66zt0 0zM291 75q36 0 62.5 10q26.5 10 44.5 32.5q18 22.5 27 59.5q9 37 9 92q0 54 -9 91q-9 37 -26.5 59.5q-17.5 22.5 -44.5 32.5q-27 10 -63 10q-69 0 -106.5 -43.5q-37.5 -43.5 -37.5 -149.5q0 -55 9 -92q9 -37 27 -59.5q18 -22.5 45 -32.5q27 -10 63 -10zt0 0zM239 773h104l113 -144h-82l-83 90l-85 -90l-80 0z" />
<glyph unicode="&#245;" horiz-adv-x="581" d="M291 -11q-118 0 -179.5 66q-61.5 66 -61.5 214q0 143 64 212q64 69 177 69q60 0 105 -15.5q45 -15.5 75 -49.5q30 -34 45 -87.5q15 -53.5 15 -128.5q0 -148 -61.5 -214q-61.5 -66 -178.5 -66zt0 0zM291 75q36 0 62.5 10q26.5 10 44.5 32.5q18 22.5 27 59.5q9 37 9 92q0 54 -9 91q-9 37 -26.5 59.5q-17.5 22.5 -44.5 32.5q-27 10 -63 10q-69 0 -106.5 -43.5q-37.5 -43.5 -37.5 -149.5q0 -55 9 -92q9 -37 27 -59.5q18 -22.5 45 -32.5q27 -10 63 -10zt0 0zM130 647q3 48 27.5 74q24.5 26 62.5 26q20 0 37.5 -6q17.5 -6 39.5 -16q23 -10 35.5 -16q12.5 -6 26.5 -6q15 0 23.5 9.5q8.5 9.5 13.5 33.5l56 -12q-5 -48 -29.5 -74q-24.5 -26 -59.5 -26q-9 0 -17 0.5q-8 0.5 -17 3q-9 2.5 -19.5 6.5q-10.5 4 -25.5 12q-20 9 -32.5 15.5q-12.5 6.5 -26.5 6.5q-14 0 -24 -9q-10 -9 -15 -35z" />
<glyph unicode="&#246;" horiz-adv-x="581" d="M291 -11q-118 0 -179.5 66q-61.5 66 -61.5 214q0 143 64 212q64 69 177 69q60 0 105 -15.5q45 -15.5 75 -49.5q30 -34 45 -87.5q15 -53.5 15 -128.5q0 -148 -61.5 -214q-61.5 -66 -178.5 -66zt0 0zM291 75q36 0 62.5 10q26.5 10 44.5 32.5q18 22.5 27 59.5q9 37 9 92q0 54 -9 91q-9 37 -26.5 59.5q-17.5 22.5 -44.5 32.5q-27 10 -63 10q-69 0 -106.5 -43.5q-37.5 -43.5 -37.5 -149.5q0 -55 9 -92q9 -37 27 -59.5q18 -22.5 45 -32.5q27 -10 63 -10zt0 0zM193 646q-59 0 -59 55q0 55 59 55q58 0 58 -55q0 -55 -58 -55zt0 0zM389 646q-58 0 -58 55q0 55 58 55q59 0 59 -55q0 -55 -59 -55z" />
<glyph unicode="&#247;" horiz-adv-x="612" d="M97 408h418v-85h-418zM306 113q-68 0 -68 68q0 32 17.5 50q17.5 18 50.5 18q33 0 50.5 -18q17.5 -18 17.5 -50q0 -68 -68 -68zt0 0zM306 482q-68 0 -68 68q0 32 17.5 50q17.5 18 50.5 18q33 0 50.5 -18q17.5 -18 17.5 -50q0 -68 -68 -68z" />
<glyph unicode="&#248;" horiz-adv-x="581" d="M291 -11q-84 0 -137 31l-38 -54l-49 34l41 59q-58 67 -58 210q0 143 64 212q64 69 177 69q84 0 137 -31l37 53l49 -34l-40 -57q57 -68 57 -212q0 -148 -61.5 -214q-61.5 -66 -178.5 -66zt0 0zM291 75q36 0 62.5 10q26.5 10 44.5 32.5q18 22.5 27 59.5q9 37 9 92q0 79 -20 125l-208 -298q31 -21 85 -21zt0 0zM147 269q0 -82 20 -125l207 298q-31 20 -83 20q-69 0 -106.5 -43.5t-37.5 -149.5z" />
<glyph unicode="&#249;" horiz-adv-x="592" d="M253 -11q-87 0 -132 47q-45 47 -45 154v348h94v-316q0 -84 27.5 -115.5q27.5 -31.5 87.5 -31.5q62 0 97 37q35 37 35 110v316h94v-538h-89l-5 89q-23 -46 -62 -73q-39 -27 -102 -27zt0 0zM132 773h126l82 -144l-80 0z" />
<glyph unicode="&#250;" horiz-adv-x="592" d="M253 -11q-87 0 -132 47q-45 47 -45 154v348h94v-316q0 -84 27.5 -115.5q27.5 -31.5 87.5 -31.5q62 0 97 37q35 37 35 110v316h94v-538h-89l-5 89q-23 -46 -62 -73q-39 -27 -102 -27zt0 0zM331 773h124l-130 -144l-78 0z" />
<glyph unicode="&#251;" horiz-adv-x="592" d="M253 -11q-87 0 -132 47q-45 47 -45 154v348h94v-316q0 -84 27.5 -115.5q27.5 -31.5 87.5 -31.5q62 0 97 37q35 37 35 110v316h94v-538h-89l-5 89q-23 -46 -62 -73q-39 -27 -102 -27zt0 0zM241 773h104l113 -144h-82l-83 90l-85 -90l-80 0z" />
<glyph unicode="&#252;" horiz-adv-x="592" d="M253 -11q-87 0 -132 47q-45 47 -45 154v348h94v-316q0 -84 27.5 -115.5q27.5 -31.5 87.5 -31.5q62 0 97 37q35 37 35 110v316h94v-538h-89l-5 89q-23 -46 -62 -73q-39 -27 -102 -27zt0 0zM195 646q-59 0 -59 55q0 55 59 55q58 0 58 -55q0 -55 -58 -55zt0 0zM391 646q-58 0 -58 55q0 55 58 55q59 0 59 -55q0 -55 -59 -55z" />
<glyph unicode="&#253;" horiz-adv-x="530" d="M166 -195q-21 0 -39 4q-18 4 -23 7l0 92q10 -8 22 -12q12 -4 29 -4q12 0 22 3.5q10 3.5 20 15q10 11.5 19 33q9 21.5 20 56.5l-216 538h103l157 -412l132 412h98l-181 -539q-21 -63 -39.5 -101.5q-18.5 -38.5 -37 -59q-18.5 -20.5 -39.5 -27q-21 -6.5 -47 -6.5zt0 0zM303 773h124l-130 -144l-78 0z" />
<glyph unicode="&#254;" horiz-adv-x="602" d="M81 769h94v-317q12 20 27 37.5q15 17.5 36 31q21 13.5 48.5 21.5q27.5 8 64.5 8q50 0 87.5 -15q37.5 -15 63 -48q25.5 -33 38 -85.5q12.5 -52.5 12.5 -127.5q0 -78 -13.5 -132q-13.5 -54 -40 -88q-26.5 -34 -66.5 -49.5q-40 -15.5 -93 -15.5q-36 0 -62.5 8q-26.5 8 -46 22q-19.5 14 -33 31.5q-13.5 17.5 -22.5 37.5l0 -272h-94zM454 274q0 53 -8.5 89q-8.5 36 -25.5 58q-17 22 -42.5 31.5q-25.5 9.5 -59.5 9.5q-69 0 -106 -39q-37 -39 -37 -121v-67q0 -79 38 -119.5q38 -40.5 103 -40.5q34 0 60 9.5q26 9.5 43.5 32.5q17.5 23 26 61.5t8.5 95.5z" />
<glyph unicode="&#255;" horiz-adv-x="530" d="M166 -195q-21 0 -39 4q-18 4 -23 7l0 92q10 -8 22 -12q12 -4 29 -4q12 0 22 3.5q10 3.5 20 15q10 11.5 19 33q9 21.5 20 56.5l-216 538h103l157 -412l132 412h98l-181 -539q-21 -63 -39.5 -101.5q-18.5 -38.5 -37 -59q-18.5 -20.5 -39.5 -27q-21 -6.5 -47 -6.5zt0 0zM167 646q-59 0 -59 55q0 55 59 55q58 0 58 -55q0 -55 -58 -55zt0 0zM363 646q-58 0 -58 55q0 55 58 55q59 0 59 -55q0 -55 -59 -55z" />
<glyph unicode="&#256;" horiz-adv-x="653" d="M273 714h108l252 -714h-105l-63 186h-282l-63 -186h-100zM212 272h224l-112 330zM179 883h295v-73l-295 0z" />
<glyph unicode="&#257;" horiz-adv-x="546" d="M218 -11q-83 0 -125.5 41.5q-42.5 41.5 -42.5 119.5q0 40 11 71q11 31 36.5 51q25.5 20 66 30.5q40.5 10.5 100.5 10.5h112v46q0 56 -26.5 79.5q-26.5 23.5 -96.5 23.5q-48 0 -90 -13q-42 -13 -70 -32l0 98q29 14 75.5 24.5q46.5 10.5 97.5 10.5q56 0 95 -10.5q39 -10.5 63 -33.5q24 -23 35 -59.5q11 -36.5 11 -88.5v-358h-85l-5 92q-19 -43 -58.5 -73q-39.5 -30 -103.5 -30zt0 0zM244 72q61 0 96.5 36q35.5 36 35.5 104v36h-105q-71 0 -97.5 -23q-26.5 -23 -26.5 -70q0 -41 23 -62q23 -21 74 -21zt0 0zM147 726h267v-70l-267 0z" />
<glyph unicode="&#258;" horiz-adv-x="653" d="M273 714h108l252 -714h-105l-63 186h-282l-63 -186h-100zM212 272h224l-112 330zM327 783q-66 0 -108 33q-42 33 -56 97l66 17q19 -76 98 -76q41 0 65 19q24 19 35 57l64 -17q-14 -65 -56 -97.5t-108 -32.5z" />
<glyph unicode="&#259;" horiz-adv-x="546" d="M218 -11q-83 0 -125.5 41.5q-42.5 41.5 -42.5 119.5q0 40 11 71q11 31 36.5 51q25.5 20 66 30.5q40.5 10.5 100.5 10.5h112v46q0 56 -26.5 79.5q-26.5 23.5 -96.5 23.5q-48 0 -90 -13q-42 -13 -70 -32l0 98q29 14 75.5 24.5q46.5 10.5 97.5 10.5q56 0 95 -10.5q39 -10.5 63 -33.5q24 -23 35 -59.5q11 -36.5 11 -88.5v-358h-85l-5 92q-19 -43 -58.5 -73q-39.5 -30 -103.5 -30zt0 0zM244 72q61 0 96.5 36q35.5 36 35.5 104v36h-105q-71 0 -97.5 -23q-26.5 -23 -26.5 -70q0 -41 23 -62q23 -21 74 -21zt0 0zM279 627q-63 0 -104.5 33q-41.5 33 -54.5 98l64 17q19 -79 95 -79q77 0 97 79l62 -18q-14 -65 -55 -97.5t-104 -32.5z" />
<glyph unicode="&#260;" horiz-adv-x="653" d="M553 -201q-53 0 -76 21q-23 21 -23 59q0 67 89 121l-15 0l-63 186h-282l-63 -186h-100l253 714h108l252 -714q-51 -26 -74 -54.5q-23 -28.5 -23 -51.5q0 -34 39 -34q16 0 30 4q14 4 28 12l0 -59q-16 -8 -35 -13q-19 -5 -45 -5zt0 0zM212 272h224l-112 330z" />
<glyph unicode="&#261;" horiz-adv-x="546" d="M389 -201q-52 0 -75 21q-23 21 -23 59q0 66 94 124l-5 89q-19 -43 -58.5 -73q-39.5 -30 -103.5 -30q-83 0 -125.5 41.5q-42.5 41.5 -42.5 119.5q0 40 11 71q11 31 36.5 51q25.5 20 66 30.5q40.5 10.5 100.5 10.5h112v46q0 56 -26.5 79.5q-26.5 23.5 -96.5 23.5q-48 0 -90 -13q-42 -13 -70 -32l0 98q29 14 75.5 24.5q46.5 10.5 97.5 10.5q56 0 95 -10.5q39 -10.5 63 -33.5q24 -23 35 -59.5q11 -36.5 11 -88.5v-358q-52 -26 -75 -54.5q-23 -28.5 -23 -51.5q0 -35 40 -35q30 0 58 16l0 -58q-15 -8 -35 -13q-20 -5 -46 -5zt0 0zM244 72q61 0 96.5 36q35.5 36 35.5 104v36h-105q-71 0 -97.5 -23q-26.5 -23 -26.5 -70q0 -41 23 -62t74 -21z" />
<glyph unicode="&#262;" horiz-adv-x="586" d="M366 -11q-79 0 -138 20.5q-59 20.5 -98.5 65.5q-39.5 45 -59 115.5q-19.5 70.5 -19.5 171.5q0 191 79.5 277q79.5 86 231.5 86q38 0 69.5 -4.5q31.5 -4.5 54.5 -9.5q26 -6 48 -14l0 -104q-29 18 -71 29q-42 11 -99 11q-52 0 -91.5 -14.5q-39.5 -14.5 -66 -47q-26.5 -32.5 -40 -84q-13.5 -51.5 -13.5 -125.5q0 -77 14 -130.5q14 -53.5 41 -87q27 -33.5 67 -48.5q40 -15 92 -15q60 0 104 16.5q44 16.5 70 31.5l0 -103q-23 -11 -50 -19q-23 -7 -55 -12.5q-32 -5.5 -70 -5.5zt0 0zM385 928h126l-138 -143l-80 0z" />
<glyph unicode="&#263;" horiz-adv-x="484" d="M306 -11q-130 0 -193 66.5q-63 66.5 -63 218.5q0 142 63.5 209q63.5 67 185.5 67q56 0 92.5 -10.5q36.5 -10.5 49.5 -16.5l0 -101q-23 17 -57 28.5q-34 11.5 -78 11.5q-78 0 -118.5 -44q-40.5 -44 -40.5 -144q0 -107 42 -153q42 -46 127 -46q38 0 75 13q37 13 58 30l0 -97q-14 -8 -50 -20q-36 -12 -93 -12zt0 0zM316 773h124l-130 -144l-78 0z" />
<glyph unicode="&#264;" horiz-adv-x="586" d="M366 -11q-79 0 -138 20.5q-59 20.5 -98.5 65.5q-39.5 45 -59 115.5q-19.5 70.5 -19.5 171.5q0 191 79.5 277q79.5 86 231.5 86q38 0 69.5 -4.5q31.5 -4.5 54.5 -9.5q26 -6 48 -14l0 -104q-29 18 -71 29q-42 11 -99 11q-52 0 -91.5 -14.5q-39.5 -14.5 -66 -47q-26.5 -32.5 -40 -84q-13.5 -51.5 -13.5 -125.5q0 -77 14 -130.5q14 -53.5 41 -87q27 -33.5 67 -48.5q40 -15 92 -15q60 0 104 16.5q44 16.5 70 31.5l0 -103q-23 -11 -50 -19q-23 -7 -55 -12.5q-32 -5.5 -70 -5.5zt0 0zM287 928h106l118 -143h-83l-88 88l-90 -88l-81 0z" />
<glyph unicode="&#265;" horiz-adv-x="484" d="M306 -11q-130 0 -193 66.5q-63 66.5 -63 218.5q0 142 63.5 209q63.5 67 185.5 67q56 0 92.5 -10.5q36.5 -10.5 49.5 -16.5l0 -101q-23 17 -57 28.5q-34 11.5 -78 11.5q-78 0 -118.5 -44q-40.5 -44 -40.5 -144q0 -107 42 -153q42 -46 127 -46q38 0 75 13q37 13 58 30l0 -97q-14 -8 -50 -20q-36 -12 -93 -12zt0 0zM226 773h104l113 -144h-82l-83 90l-85 -90l-80 0z" />
<glyph unicode="&#266;" horiz-adv-x="586" d="M366 -11q-79 0 -138 20.5q-59 20.5 -98.5 65.5q-39.5 45 -59 115.5q-19.5 70.5 -19.5 171.5q0 191 79.5 277q79.5 86 231.5 86q38 0 69.5 -4.5q31.5 -4.5 54.5 -9.5q26 -6 48 -14l0 -104q-29 18 -71 29q-42 11 -99 11q-52 0 -91.5 -14.5q-39.5 -14.5 -66 -47q-26.5 -32.5 -40 -84q-13.5 -51.5 -13.5 -125.5q0 -77 14 -130.5q14 -53.5 41 -87q27 -33.5 67 -48.5q40 -15 92 -15q60 0 104 16.5q44 16.5 70 31.5l0 -103q-23 -11 -50 -19q-23 -7 -55 -12.5q-32 -5.5 -70 -5.5zt0 0zM341 798q-62 0 -62 59q0 59 62 59q62 0 62 -59q0 -59 -62 -59z" />
<glyph unicode="&#267;" horiz-adv-x="484" d="M306 -11q-130 0 -193 66.5q-63 66.5 -63 218.5q0 142 63.5 209q63.5 67 185.5 67q56 0 92.5 -10.5q36.5 -10.5 49.5 -16.5l0 -101q-23 17 -57 28.5q-34 11.5 -78 11.5q-78 0 -118.5 -44q-40.5 -44 -40.5 -144q0 -107 42 -153q42 -46 127 -46q38 0 75 13q37 13 58 30l0 -97q-14 -8 -50 -20q-36 -12 -93 -12zt0 0zM278 644q-60 0 -60 57q0 57 60 57q60 0 60 -57q0 -57 -60 -57z" />
<glyph unicode="&#268;" horiz-adv-x="586" d="M366 -11q-79 0 -138 20.5q-59 20.5 -98.5 65.5q-39.5 45 -59 115.5q-19.5 70.5 -19.5 171.5q0 191 79.5 277q79.5 86 231.5 86q38 0 69.5 -4.5q31.5 -4.5 54.5 -9.5q26 -6 48 -14l0 -104q-29 18 -71 29q-42 11 -99 11q-52 0 -91.5 -14.5q-39.5 -14.5 -66 -47q-26.5 -32.5 -40 -84q-13.5 -51.5 -13.5 -125.5q0 -77 14 -130.5q14 -53.5 41 -87q27 -33.5 67 -48.5q40 -15 92 -15q60 0 104 16.5q44 16.5 70 31.5l0 -103q-23 -11 -50 -19q-23 -7 -55 -12.5q-32 -5.5 -70 -5.5zt0 0zM169 928h83l89 -88l89 88h81l-118 -143l-106 0z" />
<glyph unicode="&#269;" horiz-adv-x="484" d="M306 -11q-130 0 -193 66.5q-63 66.5 -63 218.5q0 142 63.5 209q63.5 67 185.5 67q56 0 92.5 -10.5q36.5 -10.5 49.5 -16.5l0 -101q-23 17 -57 28.5q-34 11.5 -78 11.5q-78 0 -118.5 -44q-40.5 -44 -40.5 -144q0 -107 42 -153q42 -46 127 -46q38 0 75 13q37 13 58 30l0 -97q-14 -8 -50 -20q-36 -12 -93 -12zt0 0zM113 773h82l83 -91l85 91h80l-113 -144l-104 0z" />
<glyph unicode="&#270;" horiz-adv-x="694" d="M296 -6q-35 0 -69.5 1.5q-34.5 1.5 -62.5 3.5q-33 3 -63 6l0 704q30 2 63 5q29 2 64.5 4q35.5 2 71.5 2q92 0 157 -19.5q65 -19.5 106.5 -62q41.5 -42.5 60.5 -110q19 -67.5 19 -163.5q0 -194 -86 -282.5q-86 -88.5 -261 -88.5zt0 0zM540 365q0 75 -12.5 125q-12.5 50 -41 80.5q-28.5 30.5 -74 43.5q-45.5 13 -111.5 13q-22 0 -40 -1q-18 -1 -32 -2q-16 -1 -29 -2l0 -530q12 -2 28 -3q13 -1 31 -1.5q18 -0.5 39 -0.5q63 0 108.5 15q45.5 15 75.5 48q30 33 44 86q14 53 14 129zt0 0zM158 928h83l89 -88l89 88h81l-118 -143l-106 0z" />
<glyph unicode="&#271;" horiz-adv-x="673" d="M642 769h90l-58 -185h-63zM427 89q-9 -19 -23.5 -37q-14.5 -18 -35 -32q-20.5 -14 -47.5 -22.5q-27 -8.5 -63 -8.5q-52 0 -91 15q-39 15 -65 49q-26 34 -39 88.5q-13 54.5 -13 132.5q0 144 53 210q53 66 153 66q66 0 109.5 -27q43.5 -27 61.5 -73l0 319h94v-769h-88zM147 274q0 -57 9 -95q9 -38 26.5 -61q17.5 -23 43.5 -33q26 -10 61 -10q64 0 102 41q38 41 38 123v65q0 74 -35 116q-35 42 -109 42q-68 0 -102 -41.5t-34 -146.5z" />
<glyph unicode="&#272;" horiz-adv-x="704" d="M16 400h95v309q30 2 63 5q29 2 64.5 4q35.5 2 71.5 2q92 0 157 -19.5q65 -19.5 106.5 -62q41.5 -42.5 60.5 -110q19 -67.5 19 -163.5q0 -97 -21.5 -167q-21.5 -70 -64.5 -115.5q-43 -45.5 -108 -67q-65 -21.5 -153 -21.5q-35 0 -69.5 1.5q-34.5 1.5 -62.5 3.5q-33 3 -63 6l0 320h-95zM550 365q0 75 -12.5 125q-12.5 50 -40.5 80.5q-28 30.5 -74 43.5q-46 13 -112 13q-21 0 -39 -1q-18 -1 -32 -2q-16 -1 -29 -2l0 -222h165v-75h-165v-233q13 -2 28 -3q13 -1 30.5 -1.5q17.5 -0.5 38.5 -0.5q63 0 108.5 15q45.5 15 75.5 48q30 33 44 86t14 129z" />
<glyph unicode="&#273;" horiz-adv-x="602" d="M230 680h197v89h94v-89h95v-68h-95v-612h-88l-6 89q-9 -19 -23.5 -37q-14.5 -18 -35 -32q-20.5 -14 -47.5 -22.5q-27 -8.5 -63 -8.5q-52 0 -91 15q-39 15 -65 49q-26 34 -39 88.5q-13 54.5 -13 132.5q0 144 53 210q53 66 153 66q66 0 109.5 -27q43.5 -27 61.5 -73l0 162h-197zM147 274q0 -57 9 -95q9 -38 26.5 -61q17.5 -23 43.5 -33q26 -10 61 -10q64 0 102 41q38 41 38 123v65q0 74 -35 116q-35 42 -109 42q-68 0 -102 -41.5t-34 -146.5z" />
<glyph unicode="&#274;" horiz-adv-x="586" d="M101 714h430v-89h-331v-217h290v-85h-290v-234h331v-89h-430zM168 883h295v-73l-295 0z" />
<glyph unicode="&#275;" horiz-adv-x="561" d="M302 -11q-130 0 -191 68q-61 68 -61 216q0 141 62.5 209q62.5 68 173.5 68q117 0 171 -63q54 -63 54 -199v-43h-367q2 -90 41.5 -131.5q39.5 -41.5 124.5 -41.5q51 0 95.5 16.5q44.5 16.5 71.5 40.5l0 -93q-26 -17 -69 -32q-43 -15 -106 -15zt0 0zM286 469q-68 0 -103.5 -37q-35.5 -37 -38.5 -121l273 0q0 38 -6.5 67.5q-6.5 29.5 -21.5 49.5q-15 20 -40 30.5q-25 10.5 -63 10.5zt0 0zM152 726h267v-70l-267 0z" />
<glyph unicode="&#278;" horiz-adv-x="586" d="M101 714h430v-89h-331v-217h290v-85h-290v-234h331v-89h-430zM315 798q-62 0 -62 59q0 59 62 59q62 0 62 -59q0 -59 -62 -59z" />
<glyph unicode="&#279;" horiz-adv-x="561" d="M302 -11q-130 0 -191 68q-61 68 -61 216q0 141 62.5 209q62.5 68 173.5 68q117 0 171 -63q54 -63 54 -199v-43h-367q2 -90 41.5 -131.5q39.5 -41.5 124.5 -41.5q51 0 95.5 16.5q44.5 16.5 71.5 40.5l0 -93q-26 -17 -69 -32q-43 -15 -106 -15zt0 0zM286 469q-68 0 -103.5 -37q-35.5 -37 -38.5 -121l273 0q0 38 -6.5 67.5q-6.5 29.5 -21.5 49.5q-15 20 -40 30.5q-25 10.5 -63 10.5zt0 0zM283 644q-60 0 -60 57q0 57 60 57q60 0 60 -57q0 -57 -60 -57z" />
<glyph unicode="&#280;" horiz-adv-x="586" d="M101 714h430v-89h-331v-217h290v-85h-290v-234h331v-89q-51 -26 -74 -54.5q-23 -28.5 -23 -51.5q0 -34 39 -34q16 0 30 4q14 4 28 12l0 -59q-16 -8 -35 -13q-19 -5 -45 -5q-53 0 -76 21q-23 21 -23 59q0 67 89 121l-340 0z" />
<glyph unicode="&#281;" horiz-adv-x="561" d="M302 -11q-130 0 -191 68q-61 68 -61 216q0 141 62.5 209q62.5 68 173.5 68q117 0 171 -63q54 -63 54 -199v-43h-367q2 -90 41.5 -131.5q39.5 -41.5 124.5 -41.5q51 0 95.5 16.5q44.5 16.5 71.5 40.5l0 -93q-36 -25 -60.5 -45q-24.5 -20 -38.5 -36.5q-14 -16.5 -20 -31q-6 -14.5 -6 -29.5q0 -35 39 -35q31 0 59 16l0 -58q-16 -8 -35.5 -13q-19.5 -5 -45.5 -5q-52 0 -75 21q-23 21 -23 59q0 33 18.5 60.5q18.5 27.5 50.5 51.5q-9 -1 -18.5 -1.5q-9.5 -0.5 -19.5 -0.5zt0 0zM286 469q-68 0 -103.5 -37q-35.5 -37 -38.5 -121l273 0q0 38 -6.5 67.5q-6.5 29.5 -21.5 49.5q-15 20 -40 30.5t-63 10.5z" />
<glyph unicode="&#282;" horiz-adv-x="586" d="M101 714h430v-89h-331v-217h290v-85h-290v-234h331v-89h-430zM144 928h83l89 -88l89 88h81l-118 -143l-106 0z" />
<glyph unicode="&#283;" horiz-adv-x="561" d="M302 -11q-130 0 -191 68q-61 68 -61 216q0 141 62.5 209q62.5 68 173.5 68q117 0 171 -63q54 -63 54 -199v-43h-367q2 -90 41.5 -131.5q39.5 -41.5 124.5 -41.5q51 0 95.5 16.5q44.5 16.5 71.5 40.5l0 -93q-26 -17 -69 -32q-43 -15 -106 -15zt0 0zM286 469q-68 0 -103.5 -37q-35.5 -37 -38.5 -121l273 0q0 38 -6.5 67.5q-6.5 29.5 -21.5 49.5q-15 20 -40 30.5q-25 10.5 -63 10.5zt0 0zM119 773h82l83 -91l85 91h80l-113 -144l-104 0z" />
<glyph unicode="&#284;" horiz-adv-x="663" d="M384 -11q-85 0 -147.5 21q-62.5 21 -104 66q-41.5 45 -61.5 115.5q-20 70.5 -20 170.5q0 188 83.5 275.5q83.5 87.5 249.5 87.5q38 0 69 -4.5q31 -4.5 53 -9.5q26 -6 45 -14l0 -104q-28 16 -71 28q-43 12 -96 12q-58 0 -101 -15q-43 -15 -72 -47.5q-29 -32.5 -43.5 -84q-14.5 -51.5 -14.5 -124.5q0 -78 14 -131.5q14 -53.5 42.5 -86.5q28.5 -33 72 -48q43.5 -15 102.5 -15q32 0 61 4.5q29 4.5 52 12.5l0 186h-134v86h229v-335q-29 -16 -83 -31q-54 -15 -125 -15zt0 0zM310 928h106l118 -143h-83l-88 88l-90 -88l-81 0z" />
<glyph unicode="&#285;" horiz-adv-x="602" d="M277 -195q-62 0 -109.5 11.5q-47.5 11.5 -74.5 25.5l0 107q21 -19 68.5 -38q47.5 -19 113.5 -19q81 0 116.5 34q35.5 34 35.5 106v75q-9 -20 -23.5 -38q-14.5 -18 -35 -32q-20.5 -14 -47.5 -22.5q-27 -8.5 -63 -8.5q-51 0 -90 15q-39 15 -65.5 48q-26.5 33 -39.5 84.5q-13 51.5 -13 124.5q0 141 53 206.5q53 65.5 153 65.5q66 0 109.5 -27q43.5 -27 61.5 -73l6 88h88v-500q0 -121 -59.5 -177q-59.5 -56 -184.5 -56zt0 0zM287 93q64 0 102 42q38 42 38 119v56q0 69 -35 110.5q-35 41.5 -109 41.5q-68 0 -102 -40.5q-34 -40.5 -34 -138.5q0 -54 9 -90q9 -36 26.5 -58.5q17.5 -22.5 43.5 -32q26 -9.5 61 -9.5zt0 0zM234 773h104l113 -144h-82l-83 90l-85 -90l-80 0z" />
<glyph unicode="&#286;" horiz-adv-x="663" d="M384 -11q-85 0 -147.5 21q-62.5 21 -104 66q-41.5 45 -61.5 115.5q-20 70.5 -20 170.5q0 188 83.5 275.5q83.5 87.5 249.5 87.5q38 0 69 -4.5q31 -4.5 53 -9.5q26 -6 45 -14l0 -104q-28 16 -71 28q-43 12 -96 12q-58 0 -101 -15q-43 -15 -72 -47.5q-29 -32.5 -43.5 -84q-14.5 -51.5 -14.5 -124.5q0 -78 14 -131.5q14 -53.5 42.5 -86.5q28.5 -33 72 -48q43.5 -15 102.5 -15q32 0 61 4.5q29 4.5 52 12.5l0 186h-134v86h229v-335q-29 -16 -83 -31q-54 -15 -125 -15zt0 0zM363 783q-66 0 -108 33q-42 33 -56 97l66 17q19 -76 98 -76q41 0 65 19q24 19 35 57l64 -17q-14 -65 -56 -97.5t-108 -32.5z" />
<glyph unicode="&#287;" horiz-adv-x="602" d="M277 -195q-62 0 -109.5 11.5q-47.5 11.5 -74.5 25.5l0 107q21 -19 68.5 -38q47.5 -19 113.5 -19q81 0 116.5 34q35.5 34 35.5 106v75q-9 -20 -23.5 -38q-14.5 -18 -35 -32q-20.5 -14 -47.5 -22.5q-27 -8.5 -63 -8.5q-51 0 -90 15q-39 15 -65.5 48q-26.5 33 -39.5 84.5q-13 51.5 -13 124.5q0 141 53 206.5q53 65.5 153 65.5q66 0 109.5 -27q43.5 -27 61.5 -73l6 88h88v-500q0 -121 -59.5 -177q-59.5 -56 -184.5 -56zt0 0zM287 93q64 0 102 42q38 42 38 119v56q0 69 -35 110.5q-35 41.5 -109 41.5q-68 0 -102 -40.5q-34 -40.5 -34 -138.5q0 -54 9 -90q9 -36 26.5 -58.5q17.5 -22.5 43.5 -32q26 -9.5 61 -9.5zt0 0zM286 627q-63 0 -104.5 33q-41.5 33 -54.5 98l64 17q19 -79 95 -79q77 0 97 79l62 -18q-14 -65 -55 -97.5t-104 -32.5z" />
<glyph unicode="&#288;" horiz-adv-x="663" d="M384 -11q-85 0 -147.5 21q-62.5 21 -104 66q-41.5 45 -61.5 115.5q-20 70.5 -20 170.5q0 188 83.5 275.5q83.5 87.5 249.5 87.5q38 0 69 -4.5q31 -4.5 53 -9.5q26 -6 45 -14l0 -104q-28 16 -71 28q-43 12 -96 12q-58 0 -101 -15q-43 -15 -72 -47.5q-29 -32.5 -43.5 -84q-14.5 -51.5 -14.5 -124.5q0 -78 14 -131.5q14 -53.5 42.5 -86.5q28.5 -33 72 -48q43.5 -15 102.5 -15q32 0 61 4.5q29 4.5 52 12.5l0 186h-134v86h229v-335q-29 -16 -83 -31q-54 -15 -125 -15zt0 0zM363 798q-62 0 -62 59q0 59 62 59q62 0 62 -59q0 -59 -62 -59z" />
<glyph unicode="&#289;" horiz-adv-x="602" d="M277 -195q-62 0 -109.5 11.5q-47.5 11.5 -74.5 25.5l0 107q21 -19 68.5 -38q47.5 -19 113.5 -19q81 0 116.5 34q35.5 34 35.5 106v75q-9 -20 -23.5 -38q-14.5 -18 -35 -32q-20.5 -14 -47.5 -22.5q-27 -8.5 -63 -8.5q-51 0 -90 15q-39 15 -65.5 48q-26.5 33 -39.5 84.5q-13 51.5 -13 124.5q0 141 53 206.5q53 65.5 153 65.5q66 0 109.5 -27q43.5 -27 61.5 -73l6 88h88v-500q0 -121 -59.5 -177q-59.5 -56 -184.5 -56zt0 0zM287 93q64 0 102 42q38 42 38 119v56q0 69 -35 110.5q-35 41.5 -109 41.5q-68 0 -102 -40.5q-34 -40.5 -34 -138.5q0 -54 9 -90q9 -36 26.5 -58.5q17.5 -22.5 43.5 -32q26 -9.5 61 -9.5zt0 0zM285 644q-60 0 -60 57q0 57 60 57q60 0 60 -57q0 -57 -60 -57z" />
<glyph unicode="&#290;" horiz-adv-x="663" d="M384 -11q-85 0 -147.5 21q-62.5 21 -104 66q-41.5 45 -61.5 115.5q-20 70.5 -20 170.5q0 188 83.5 275.5q83.5 87.5 249.5 87.5q38 0 69 -4.5q31 -4.5 53 -9.5q26 -6 45 -14l0 -104q-28 16 -71 28q-43 12 -96 12q-58 0 -101 -15q-43 -15 -72 -47.5q-29 -32.5 -43.5 -84q-14.5 -51.5 -14.5 -124.5q0 -78 14 -131.5q14 -53.5 42.5 -86.5q28.5 -33 72 -48q43.5 -15 102.5 -15q32 0 61 4.5q29 4.5 52 12.5l0 186h-134v86h229v-335q-29 -16 -83 -31q-54 -15 -125 -15zt0 0zM299 -177q24 2 44.5 9.5q20.5 7.5 25.5 27.5q-48 0 -63 12q-15 12 -15 33q0 20 16.5 32.5q16.5 12.5 55.5 12.5q37 0 54.5 -16q17.5 -16 17.5 -44q0 -44 -33 -78q-33 -34 -97 -39z" />
<glyph unicode="&#291;" horiz-adv-x="602" d="M277 -195q-62 0 -109.5 11.5q-47.5 11.5 -74.5 25.5l0 107q21 -19 68.5 -38q47.5 -19 113.5 -19q81 0 116.5 34q35.5 34 35.5 106v75q-9 -20 -23.5 -38q-14.5 -18 -35 -32q-20.5 -14 -47.5 -22.5q-27 -8.5 -63 -8.5q-51 0 -90 15q-39 15 -65.5 48q-26.5 33 -39.5 84.5q-13 51.5 -13 124.5q0 141 53 206.5q53 65.5 153 65.5q66 0 109.5 -27q43.5 -27 61.5 -73l6 88h88v-500q0 -121 -59.5 -177q-59.5 -56 -184.5 -56zt0 0zM287 93q64 0 102 42q38 42 38 119v56q0 69 -35 110.5q-35 41.5 -109 41.5q-68 0 -102 -40.5q-34 -40.5 -34 -138.5q0 -54 9 -90q9 -36 26.5 -58.5q17.5 -22.5 43.5 -32q26 -9.5 61 -9.5zt0 0zM347 758q-29 -2 -47 -10q-18 -8 -21 -28q45 0 60.5 -12q15.5 -12 15.5 -32q0 -20 -16 -32.5q-16 -12.5 -53 -12.5q-35 0 -52 16.5q-17 16.5 -17 46.5q0 20 7 39q7 19 22 35q15 16 38.5 26.5q23.5 10.5 56.5 13.5z" />
<glyph unicode="&#292;" horiz-adv-x="734" d="M101 714h99v-303h334v303h99v-714h-99v322h-334v-322h-99zM314 928h106l118 -143h-83l-88 88l-90 -88l-81 0z" />
<glyph unicode="&#293;" horiz-adv-x="597" d="M81 769h94v-322q23 50 62.5 76.5q39.5 26.5 102.5 26.5q91 0 136 -47q45 -47 45 -155v-348h-94v314q0 43 -7 71.5q-7 28.5 -21.5 45.5q-14.5 17 -37 24q-22.5 7 -54.5 7q-62 0 -97 -36.5q-35 -36.5 -35 -111.5v-314h-94zM76 958h104l113 -144h-82l-83 90l-85 -90l-80 0z" />
<glyph unicode="&#294;" horiz-adv-x="755" d="M16 599h95v115h100v-115h333v115h99v-115h95v-76h-95v-523h-99v322h-333v-322h-100v523h-95zM544 411v112h-333l0 -112z" />
<glyph unicode="&#295;" horiz-adv-x="617" d="M6 682h95v87h94v-87h204v-72h-204v-163q23 50 62.5 76.5q39.5 26.5 103.5 26.5q91 0 135.5 -47q44.5 -47 44.5 -155v-348h-94v314q0 43 -7 71.5q-7 28.5 -21.5 45.5q-14.5 17 -37 24q-22.5 7 -54.5 7q-62 0 -97 -36.5q-35 -36.5 -35 -111.5v-314h-94v610l-95 0z" />
<glyph unicode="&#298;" horiz-adv-x="337" d="M119 714h99v-714h-99zM21 883h295v-73l-295 0z" />
<glyph unicode="&#299;" horiz-adv-x="296" d="M100 538h95v-538h-95zM17 726h267v-70l-267 0z" />
<glyph unicode="&#302;" horiz-adv-x="337" d="M119 714h99v-712l4 -2q-52 -26 -75 -54.5q-23 -28.5 -23 -51.5q0 -35 40 -35q30 0 58 16l0 -58q-15 -8 -35 -13q-20 -5 -46 -5q-52 0 -75 21q-23 21 -23 59q0 65 89 121l-13 0z" />
<glyph unicode="&#303;" horiz-adv-x="296" d="M100 538h95v-535l6 -3q-52 -26 -75 -54.5q-23 -28.5 -23 -51.5q0 -35 40 -35q30 0 58 16l0 -58q-15 -8 -35 -13q-20 -5 -46 -5q-52 0 -75 21q-23 21 -23 59q0 65 89 121l-11 0zM148 644q-60 0 -60 57q0 57 60 57q60 0 60 -57q0 -57 -60 -57z" />
<glyph unicode="&#304;" horiz-adv-x="337" d="M119 714h99v-714h-99zM168 798q-62 0 -62 59q0 59 62 59q62 0 62 -59q0 -59 -62 -59z" />
<glyph unicode="&#305;" horiz-adv-x="296" d="M100 538h95v-538l-95 0z" />
<glyph unicode="&#308;" horiz-adv-x="428" d="M143 -11q-25 0 -44.5 2.5q-19.5 2.5 -33.5 6.5q-17 4 -30 9l0 103q11 -9 26 -15q13 -5 30.5 -9.5q17.5 -4.5 40.5 -4.5q47 0 69.5 25q22.5 25 22.5 85v523h99v-523q0 -110 -43.5 -156q-43.5 -46 -136.5 -46zt0 0zM222 928h102l117 -143h-82l-86 89l-88 -89l-81 0z" />
<glyph unicode="&#309;" horiz-adv-x="296" d="M56 -190q-28 0 -49 4.5q-21 4.5 -28 7.5l0 94q11 -8 26.5 -13.5q15.5 -5.5 35.5 -5.5q31 0 45 17.5q14 17.5 14 63.5v560h95v-564q0 -88 -35 -126q-35 -38 -104 -38zt0 0zM96 773h104l113 -144h-82l-83 90l-85 -90l-80 0z" />
<glyph unicode="&#310;" horiz-adv-x="668" d="M273 321h-73v-321h-99v714h99v-304h74l229 304h119l-266 -347l287 -367h-123zM307 -177q24 2 44.5 9.5q20.5 7.5 25.5 27.5q-48 0 -63 12q-15 12 -15 33q0 20 16.5 32.5q16.5 12.5 55.5 12.5q37 0 54.5 -16q17.5 -16 17.5 -44q0 -44 -33 -78q-33 -34 -97 -39z" />
<glyph unicode="&#311;" horiz-adv-x="566" d="M81 769h94v-448h60l166 217h110l-200 -257l220 -281h-113l-183 237h-60v-237h-94zM245 -177q29 2 47 10q18 8 21 28q-45 0 -60.5 12q-15.5 12 -15.5 32q0 20 16 32.5q16 12.5 53 12.5q35 0 52 -16.5q17 -16.5 17 -46.5q0 -20 -7 -39q-7 -19 -22 -35q-15 -16 -38.5 -26.5q-23.5 -10.5 -56.5 -13.5z" />
<glyph unicode="&#313;" horiz-adv-x="541" d="M101 714h99v-625h310v-89h-409zM199 928h126l-138 -143l-80 0z" />
<glyph unicode="&#314;" horiz-adv-x="321" d="M209 -6q-69 0 -101 33q-32 33 -32 104v638h94v-621q0 -39 13 -52.5q13 -13.5 44 -13.5q18 0 35 5.5q17 5.5 24 8.5l0 -87q-7 -3 -27.5 -9q-20.5 -6 -49.5 -6zt0 0zM163 920h115l-121 -123l-72 0z" />
<glyph unicode="&#315;" horiz-adv-x="541" d="M101 714h99v-625h310v-89h-409zM241 -177q24 2 44.5 9.5q20.5 7.5 25.5 27.5q-48 0 -63 12q-15 12 -15 33q0 20 16.5 32.5q16.5 12.5 55.5 12.5q37 0 54.5 -16q17.5 -16 17.5 -44q0 -44 -33 -78q-33 -34 -97 -39z" />
<glyph unicode="&#316;" horiz-adv-x="321" d="M209 -6q-69 0 -101 33q-32 33 -32 104v638h94v-621q0 -39 13 -52.5q13 -13.5 44 -13.5q18 0 35 5.5q17 5.5 24 8.5l0 -87q-7 -3 -27.5 -9q-20.5 -6 -49.5 -6zt0 0zM126 -177q29 2 47 10q18 8 21 28q-45 0 -60.5 12q-15.5 12 -15.5 32q0 20 16 32.5q16 12.5 53 12.5q35 0 52 -16.5q17 -16.5 17 -46.5q0 -20 -7 -39q-7 -19 -22 -35q-15 -16 -38.5 -26.5q-23.5 -10.5 -56.5 -13.5z" />
<glyph unicode="&#317;" horiz-adv-x="541" d="M370 714h96l-64 -191h-67zM101 714h99v-625h310v-89l-409 0z" />
<glyph unicode="&#318;" horiz-adv-x="382" d="M297 769h91l-65 -185h-63zM209 -6q-69 0 -101 33q-32 33 -32 104v638h94v-621q0 -39 13 -52.5q13 -13.5 44 -13.5q18 0 35 5.5q17 5.5 24 8.5l0 -87q-7 -3 -27.5 -9t-49.5 -6z" />
<glyph unicode="&#319;" horiz-adv-x="541" d="M101 714h99v-625h310v-89h-409zM420 320q-32 0 -50 17.5q-18 17.5 -18 50.5q0 33 18 50q18 17 50 17q68 0 68 -67q0 -68 -68 -68z" />
<glyph unicode="&#320;" horiz-adv-x="423" d="M209 -6q-69 0 -101 33q-32 33 -32 104v638h94v-621q0 -39 13 -52.5q13 -13.5 44 -13.5q18 0 35 5.5q17 5.5 24 8.5l0 -87q-7 -3 -27.5 -9q-20.5 -6 -49.5 -6zt0 0zM332 320q-32 0 -50 17.5q-18 17.5 -18 50.5q0 33 18 50q18 17 50 17q68 0 68 -67q0 -68 -68 -68z" />
<glyph unicode="&#321;" horiz-adv-x="551" d="M16 348l95 55v311h100v-253l154 89v-87l-154 -89v-285h309v-89h-409v316l-95 -54z" />
<glyph unicode="&#322;" horiz-adv-x="377" d="M16 373l102 59v337h95v-282l109 63v-83l-109 -63v-256q0 -39 13.5 -52.5q13.5 -13.5 43.5 -13.5q17 0 34.5 5.5q17.5 5.5 24.5 8.5l0 -87q-7 -3 -27.5 -9q-20.5 -6 -49.5 -6q-69 0 -101.5 33q-32.5 33 -32.5 104v218l-102 -58z" />
<glyph unicode="&#323;" horiz-adv-x="755" d="M101 714h112l284 -455q12 -21 23 -40.5q11 -19.5 19 -34.5q10 -18 17 -34l2 0q-1 16 -2 34q-1 15 -1.5 34.5q-0.5 19.5 -0.5 40.5v455h100v-714h-113l-283 455q-14 23 -24.5 42.5q-10.5 19.5 -18.5 34.5l-16 32h-2q0 -14 1 -32q1 -15 1.5 -34.5q0.5 -19.5 0.5 -42.5v-455h-99zM422 928h126l-138 -143l-80 0z" />
<glyph unicode="&#324;" horiz-adv-x="597" d="M81 538h88l6 -90q23 48 62.5 75q39.5 27 102.5 27q91 0 136 -47q45 -47 45 -155v-348h-94v316q0 42 -7 70q-7 28 -21.5 45q-14.5 17 -37 24q-22.5 7 -54.5 7q-62 0 -97 -36.5q-35 -36.5 -35 -109.5v-316h-94zM338 773h124l-130 -144l-78 0z" />
<glyph unicode="&#325;" horiz-adv-x="755" d="M101 714h112l284 -455q12 -21 23 -40.5q11 -19.5 19 -34.5q10 -18 17 -34l2 0q-1 16 -2 34q-1 15 -1.5 34.5q-0.5 19.5 -0.5 40.5v455h100v-714h-113l-283 455q-14 23 -24.5 42.5q-10.5 19.5 -18.5 34.5l-16 32h-2q0 -14 1 -32q1 -15 1.5 -34.5q0.5 -19.5 0.5 -42.5v-455h-99zM313 -177q24 2 44.5 9.5q20.5 7.5 25.5 27.5q-48 0 -63 12q-15 12 -15 33q0 20 16.5 32.5q16.5 12.5 55.5 12.5q37 0 54.5 -16q17.5 -16 17.5 -44q0 -44 -33 -78q-33 -34 -97 -39z" />
<glyph unicode="&#326;" horiz-adv-x="597" d="M81 538h88l6 -90q23 48 62.5 75q39.5 27 102.5 27q91 0 136 -47q45 -47 45 -155v-348h-94v316q0 42 -7 70q-7 28 -21.5 45q-14.5 17 -37 24q-22.5 7 -54.5 7q-62 0 -97 -36.5q-35 -36.5 -35 -109.5v-316h-94zM240 -177q29 2 47 10q18 8 21 28q-45 0 -60.5 12q-15.5 12 -15.5 32q0 20 16 32.5q16 12.5 53 12.5q35 0 52 -16.5q17 -16.5 17 -46.5q0 -20 -7 -39q-7 -19 -22 -35q-15 -16 -38.5 -26.5q-23.5 -10.5 -56.5 -13.5z" />
<glyph unicode="&#327;" horiz-adv-x="755" d="M101 714h112l284 -455q12 -21 23 -40.5q11 -19.5 19 -34.5q10 -18 17 -34l2 0q-1 16 -2 34q-1 15 -1.5 34.5q-0.5 19.5 -0.5 40.5v455h100v-714h-113l-283 455q-14 23 -24.5 42.5q-10.5 19.5 -18.5 34.5l-16 32h-2q0 -14 1 -32q1 -15 1.5 -34.5q0.5 -19.5 0.5 -42.5v-455h-99zM206 928h83l89 -88l89 88h81l-118 -143l-106 0z" />
<glyph unicode="&#328;" horiz-adv-x="597" d="M81 538h88l6 -90q23 48 62.5 75q39.5 27 102.5 27q91 0 136 -47q45 -47 45 -155v-348h-94v316q0 42 -7 70q-7 28 -21.5 45q-14.5 17 -37 24q-22.5 7 -54.5 7q-62 0 -97 -36.5q-35 -36.5 -35 -109.5v-316h-94zM136 773h82l83 -91l85 91h80l-113 -144l-104 0z" />
<glyph unicode="&#332;" horiz-adv-x="724" d="M362 -11q-75 0 -133 21q-58 21 -97.5 66q-39.5 45 -60 114.5q-20.5 69.5 -20.5 166.5q0 193 80 280.5q80 87.5 231 87.5q78 0 136 -20q58 -20 97 -64.5q39 -44.5 58.5 -114.5q19.5 -70 19.5 -169q0 -97 -20.5 -166.5q-20.5 -69.5 -60 -114.5q-39.5 -45 -97.5 -66q-58 -21 -133 -21zt0 0zM362 79q51 0 90 14.5q39 14.5 65.5 47.5q26.5 33 40 86q13.5 53 13.5 130q0 77 -13.5 130q-13.5 53 -40 86q-26.5 33 -65.5 47.5q-39 14.5 -90 14.5q-50 0 -89 -15q-39 -15 -65.5 -48q-26.5 -33 -40.5 -86q-14 -53 -14 -129q0 -76 14 -129q14 -53 40.5 -86q26.5 -33 65.5 -48q39 -15 89 -15zt0 0zM214 883h295v-73l-295 0z" />
<glyph unicode="&#333;" horiz-adv-x="581" d="M291 -11q-118 0 -179.5 66q-61.5 66 -61.5 214q0 143 64 212q64 69 177 69q60 0 105 -15.5q45 -15.5 75 -49.5q30 -34 45 -87.5q15 -53.5 15 -128.5q0 -148 -61.5 -214q-61.5 -66 -178.5 -66zt0 0zM291 75q36 0 62.5 10q26.5 10 44.5 32.5q18 22.5 27 59.5q9 37 9 92q0 54 -9 91q-9 37 -26.5 59.5q-17.5 22.5 -44.5 32.5q-27 10 -63 10q-69 0 -106.5 -43.5q-37.5 -43.5 -37.5 -149.5q0 -55 9 -92q9 -37 27 -59.5q18 -22.5 45 -32.5q27 -10 63 -10zt0 0zM159 726h267v-70l-267 0z" />
<glyph unicode="&#336;" horiz-adv-x="724" d="M362 -11q-75 0 -133 21q-58 21 -97.5 66q-39.5 45 -60 114.5q-20.5 69.5 -20.5 166.5q0 193 80 280.5q80 87.5 231 87.5q78 0 136 -20q58 -20 97 -64.5q39 -44.5 58.5 -114.5q19.5 -70 19.5 -169q0 -97 -20.5 -166.5q-20.5 -69.5 -60 -114.5q-39.5 -45 -97.5 -66q-58 -21 -133 -21zt0 0zM362 79q51 0 90 14.5q39 14.5 65.5 47.5q26.5 33 40 86q13.5 53 13.5 130q0 77 -13.5 130q-13.5 53 -40 86q-26.5 33 -65.5 47.5q-39 14.5 -90 14.5q-50 0 -89 -15q-39 -15 -65.5 -48q-26.5 -33 -40.5 -86q-14 -53 -14 -129q0 -76 14 -129q14 -53 40.5 -86q26.5 -33 65.5 -48q39 -15 89 -15zt0 0zM301 928h105l-95 -143h-70zM497 928h122l-148 -143l-79 0z" />
<glyph unicode="&#337;" horiz-adv-x="581" d="M291 -11q-118 0 -179.5 66q-61.5 66 -61.5 214q0 143 64 212q64 69 177 69q60 0 105 -15.5q45 -15.5 75 -49.5q30 -34 45 -87.5q15 -53.5 15 -128.5q0 -148 -61.5 -214q-61.5 -66 -178.5 -66zt0 0zM291 75q36 0 62.5 10q26.5 10 44.5 32.5q18 22.5 27 59.5q9 37 9 92q0 54 -9 91q-9 37 -26.5 59.5q-17.5 22.5 -44.5 32.5q-27 10 -63 10q-69 0 -106.5 -43.5q-37.5 -43.5 -37.5 -149.5q0 -55 9 -92q9 -37 27 -59.5q18 -22.5 45 -32.5q27 -10 63 -10zt0 0zM224 773h105l-85 -144h-70zM411 773h121l-138 -144l-79 0z" />
<glyph unicode="&#338;" horiz-adv-x="954" d="M362 -11q-77 0 -135.5 20.5q-58.5 20.5 -97.5 65.5q-39 45 -58.5 115.5q-19.5 70.5 -19.5 171.5q0 191 79.5 277q79.5 86 231.5 86q39 0 72 -3.5q33 -3.5 55 -7.5l409 0v-89h-327v-217h286v-85h-286v-234h327v-89h-403q-23 -4 -57 -7.5q-34 -3.5 -76 -3.5zt0 0zM364 81q31 0 58.5 2q27.5 2 49.5 5l0 537q-22 3 -49 5.5q-27 2.5 -59 2.5q-52 0 -91.5 -14.5q-39.5 -14.5 -66 -47q-26.5 -32.5 -40 -84q-13.5 -51.5 -13.5 -125.5q0 -77 14 -130.5q14 -53.5 40.5 -87q26.5 -33.5 66 -48.5t90.5 -15z" />
<glyph unicode="&#339;" horiz-adv-x="938" d="M682 -11q-147 0 -203 101q-28 -53 -76 -77q-48 -24 -114 -24q-116 0 -177.5 66q-61.5 66 -61.5 214q0 142 64 211.5q64 69.5 175 69.5q68 0 116.5 -24q48.5 -24 75.5 -77q29 51 76 76q47 25 108 25q116 0 169.5 -63q53.5 -63 53.5 -199v-43h-361q2 -90 41 -131.5q39 -41.5 121 -41.5q50 0 94.5 16.5q44.5 16.5 70.5 40.5l0 -93q-25 -18 -67.5 -32.5q-42.5 -14.5 -104.5 -14.5zt0 0zM289 75q35 0 61.5 10q26.5 10 44 32.5q17.5 22.5 26.5 59.5q9 37 9 92q0 54 -9 91q-9 37 -26.5 59.5q-17.5 22.5 -44 32.5q-26.5 10 -61.5 10q-34 0 -60.5 -10.5q-26.5 -10.5 -44.5 -33.5q-18 -23 -27.5 -59.5q-9.5 -36.5 -9.5 -89.5q0 -55 9 -92q9 -37 27 -59.5q18 -22.5 44.5 -32.5q26.5 -10 61.5 -10zt0 0zM665 469q-66 0 -101 -36.5q-35 -36.5 -37 -121.5l267 0q0 77 -27.5 117.5t-101.5 40.5z" />
<glyph unicode="&#340;" horiz-adv-x="653" d="M338 272q-9 -1 -18.5 -1q-9.5 0 -19.5 0h-100v-271h-99v709q28 2 61 5q27 2 62 4q35 2 72 2q72 0 122 -13.5q50 -13.5 81.5 -41q31.5 -27.5 45.5 -69.5q14 -42 14 -99q0 -80 -29.5 -131.5q-29.5 -51.5 -94.5 -74.5l168 -291h-112zM456 494q0 36 -8 61q-8 25 -26 41q-18 16 -48 23.5q-30 7.5 -74 7.5q-20 0 -38 -0.5q-18 -0.5 -32 -1.5q-17 -1 -31 -1l0 -264h101q84 0 120 33.5q36 33.5 36 100.5zt0 0zM355 928h126l-138 -143l-80 0z" />
<glyph unicode="&#341;" horiz-adv-x="418" d="M81 538h83l6 -92q20 55 57 79.5q37 24.5 88 24.5q17 0 32 -2.5q15 -2.5 21 -5.5l0 -101q-13 8 -32 14.5q-19 6.5 -45 6.5q-54 0 -85 -35.5q-31 -35.5 -31 -117.5v-309h-94zM262 773h124l-130 -144l-78 0z" />
<glyph unicode="&#342;" horiz-adv-x="653" d="M338 272q-9 -1 -18.5 -1q-9.5 0 -19.5 0h-100v-271h-99v709q28 2 61 5q27 2 62 4q35 2 72 2q72 0 122 -13.5q50 -13.5 81.5 -41q31.5 -27.5 45.5 -69.5q14 -42 14 -99q0 -80 -29.5 -131.5q-29.5 -51.5 -94.5 -74.5l168 -291h-112zM456 494q0 36 -8 61q-8 25 -26 41q-18 16 -48 23.5q-30 7.5 -74 7.5q-20 0 -38 -0.5q-18 -0.5 -32 -1.5q-17 -1 -31 -1l0 -264h101q84 0 120 33.5q36 33.5 36 100.5zt0 0zM288 -177q24 2 44.5 9.5q20.5 7.5 25.5 27.5q-48 0 -63 12q-15 12 -15 33q0 20 16.5 32.5q16.5 12.5 55.5 12.5q37 0 54.5 -16q17.5 -16 17.5 -44q0 -44 -33 -78q-33 -34 -97 -39z" />
<glyph unicode="&#343;" horiz-adv-x="418" d="M81 538h83l6 -92q20 55 57 79.5q37 24.5 88 24.5q17 0 32 -2.5q15 -2.5 21 -5.5l0 -101q-13 8 -32 14.5q-19 6.5 -45 6.5q-54 0 -85 -35.5q-31 -35.5 -31 -117.5v-309h-94zM67 -177q29 2 47 10q18 8 21 28q-45 0 -60.5 12q-15.5 12 -15.5 32q0 20 16 32.5q16 12.5 53 12.5q35 0 52 -16.5q17 -16.5 17 -46.5q0 -20 -7 -39q-7 -19 -22 -35q-15 -16 -38.5 -26.5q-23.5 -10.5 -56.5 -13.5z" />
<glyph unicode="&#344;" horiz-adv-x="653" d="M338 272q-9 -1 -18.5 -1q-9.5 0 -19.5 0h-100v-271h-99v709q28 2 61 5q27 2 62 4q35 2 72 2q72 0 122 -13.5q50 -13.5 81.5 -41q31.5 -27.5 45.5 -69.5q14 -42 14 -99q0 -80 -29.5 -131.5q-29.5 -51.5 -94.5 -74.5l168 -291h-112zM456 494q0 36 -8 61q-8 25 -26 41q-18 16 -48 23.5q-30 7.5 -74 7.5q-20 0 -38 -0.5q-18 -0.5 -32 -1.5q-17 -1 -31 -1l0 -264h101q84 0 120 33.5q36 33.5 36 100.5zt0 0zM139 928h83l89 -88l89 88h81l-118 -143l-106 0z" />
<glyph unicode="&#345;" horiz-adv-x="418" d="M81 538h83l6 -92q20 55 57 79.5q37 24.5 88 24.5q17 0 32 -2.5q15 -2.5 21 -5.5l0 -101q-13 8 -32 14.5q-19 6.5 -45 6.5q-54 0 -85 -35.5q-31 -35.5 -31 -117.5v-309h-94zM59 773h82l83 -91l85 91h80l-113 -144l-104 0z" />
<glyph unicode="&#346;" horiz-adv-x="592" d="M288 -11q-66 0 -121.5 15.5q-55.5 15.5 -87.5 37.5l0 113q31 -27 83.5 -50.5q52.5 -23.5 121.5 -23.5q75 0 107.5 28q32.5 28 32.5 80q0 44 -25.5 69.5q-25.5 25.5 -64 42.5q-38.5 17 -83 31q-44.5 14 -83 37.5q-38.5 23.5 -64 61q-25.5 37.5 -25.5 101.5q0 93 55.5 143q55.5 50 179.5 50q57 0 104 -10q47 -10 77 -25l0 -113q-30 26 -78 41q-48 15 -99 15q-78 0 -107.5 -24q-29.5 -24 -29.5 -74q0 -43 25.5 -66.5q25.5 -23.5 64 -39q38.5 -15.5 83 -29.5q44.5 -14 83 -38q38.5 -24 64 -63.5q25.5 -39.5 25.5 -105.5q0 -99 -57 -151.5q-57 -52.5 -181 -52.5zt0 0zM346 928h126l-138 -143l-80 0z" />
<glyph unicode="&#347;" horiz-adv-x="484" d="M231 -11q-87 0 -160 31l0 104q29 -26 69.5 -39q40.5 -13 88.5 -13q54 0 76 19.5q22 19.5 22 56.5q0 32 -19.5 48.5q-19.5 16.5 -48.5 27q-29 10.5 -63 19.5q-34 9 -63 25q-29 16 -48.5 44.5q-19.5 28.5 -19.5 78.5q0 78 45 118.5q45 40.5 147 40.5q41 0 79 -8.5q38 -8.5 63 -17.5l0 -100q-30 20 -64.5 31q-34.5 11 -75.5 11q-54 0 -75 -18q-21 -18 -21 -50q0 -30 19.5 -45.5q19.5 -15.5 48.5 -25.5q29 -10 62.5 -18.5q33.5 -8.5 62.5 -25.5q29 -17 48.5 -46.5q19.5 -29.5 19.5 -81.5q0 -83 -45.5 -124.5q-45.5 -41.5 -147.5 -41.5zt0 0zM283 773h124l-130 -144l-78 0z" />
<glyph unicode="&#348;" horiz-adv-x="592" d="M288 -11q-66 0 -121.5 15.5q-55.5 15.5 -87.5 37.5l0 113q31 -27 83.5 -50.5q52.5 -23.5 121.5 -23.5q75 0 107.5 28q32.5 28 32.5 80q0 44 -25.5 69.5q-25.5 25.5 -64 42.5q-38.5 17 -83 31q-44.5 14 -83 37.5q-38.5 23.5 -64 61q-25.5 37.5 -25.5 101.5q0 93 55.5 143q55.5 50 179.5 50q57 0 104 -10q47 -10 77 -25l0 -113q-30 26 -78 41q-48 15 -99 15q-78 0 -107.5 -24q-29.5 -24 -29.5 -74q0 -43 25.5 -66.5q25.5 -23.5 64 -39q38.5 -15.5 83 -29.5q44.5 -14 83 -38q38.5 -24 64 -63.5q25.5 -39.5 25.5 -105.5q0 -99 -57 -151.5q-57 -52.5 -181 -52.5zt0 0zM248 928h106l118 -143h-83l-88 88l-90 -88l-81 0z" />
<glyph unicode="&#349;" horiz-adv-x="484" d="M231 -11q-87 0 -160 31l0 104q29 -26 69.5 -39q40.5 -13 88.5 -13q54 0 76 19.5q22 19.5 22 56.5q0 32 -19.5 48.5q-19.5 16.5 -48.5 27q-29 10.5 -63 19.5q-34 9 -63 25q-29 16 -48.5 44.5q-19.5 28.5 -19.5 78.5q0 78 45 118.5q45 40.5 147 40.5q41 0 79 -8.5q38 -8.5 63 -17.5l0 -100q-30 20 -64.5 31q-34.5 11 -75.5 11q-54 0 -75 -18q-21 -18 -21 -50q0 -30 19.5 -45.5q19.5 -15.5 48.5 -25.5q29 -10 62.5 -18.5q33.5 -8.5 62.5 -25.5q29 -17 48.5 -46.5q19.5 -29.5 19.5 -81.5q0 -83 -45.5 -124.5q-45.5 -41.5 -147.5 -41.5zt0 0zM193 773h104l113 -144h-82l-83 90l-85 -90l-80 0z" />
<glyph unicode="&#350;" horiz-adv-x="592" d="M294 -223q-26 0 -44 4q-18 4 -34 11l8 52q15 -6 29 -9q14 -3 31 -3q52 0 52 40q0 20 -13 30.5q-13 10.5 -43 10.5q-8 0 -17 -0.5q-9 -0.5 -15 -1.5l15 79q-59 3 -107 17.5q-48 14.5 -77 34.5l0 113q31 -27 83.5 -50.5q52.5 -23.5 121.5 -23.5q75 0 107.5 28q32.5 28 32.5 80q0 44 -25.5 69.5q-25.5 25.5 -64 42.5q-38.5 17 -83 31q-44.5 14 -83 37.5q-38.5 23.5 -64 61q-25.5 37.5 -25.5 101.5q0 93 55.5 143q55.5 50 179.5 50q57 0 104 -10q47 -10 77 -25l0 -113q-30 26 -78 41q-48 15 -99 15q-78 0 -107.5 -24q-29.5 -24 -29.5 -74q0 -43 25.5 -66.5q25.5 -23.5 64 -39q38.5 -15.5 83 -29.5q44.5 -14 83 -38q38.5 -24 64 -63.5q25.5 -39.5 25.5 -105.5q0 -93 -50 -144.5q-50 -51.5 -157 -58.5l-7 -35q48 0 73.5 -20.5q25.5 -20.5 25.5 -62.5q0 -44 -30 -69.5t-87 -25.5z" />
<glyph unicode="&#351;" horiz-adv-x="484" d="M238 -223q-26 0 -44 4q-18 4 -34 11l8 52q15 -6 29 -9q14 -3 31 -3q52 0 52 40q0 20 -13 30.5q-13 10.5 -43 10.5q-8 0 -17 -0.5q-9 -0.5 -15 -1.5l15 79q-38 2 -72 9.5q-34 7.5 -64 20.5l0 104q29 -26 69.5 -39q40.5 -13 88.5 -13q54 0 76 19.5q22 19.5 22 56.5q0 32 -19.5 48.5q-19.5 16.5 -48.5 27q-29 10.5 -63 19.5q-34 9 -63 25q-29 16 -48.5 44.5q-19.5 28.5 -19.5 78.5q0 78 45 118.5q45 40.5 147 40.5q41 0 79 -8.5q38 -8.5 63 -17.5l0 -100q-30 20 -64.5 31q-34.5 11 -75.5 11q-54 0 -75 -18q-21 -18 -21 -50q0 -30 19.5 -45.5q19.5 -15.5 48.5 -25.5q29 -10 62.5 -18.5q33.5 -8.5 62.5 -25.5q29 -17 48.5 -46.5q19.5 -29.5 19.5 -81.5q0 -77 -38 -117.5q-38 -40.5 -123 -47.5l-7 -35q48 0 73.5 -20.5q25.5 -20.5 25.5 -62.5q0 -44 -30 -69.5t-87 -25.5z" />
<glyph unicode="&#352;" horiz-adv-x="592" d="M288 -11q-66 0 -121.5 15.5q-55.5 15.5 -87.5 37.5l0 113q31 -27 83.5 -50.5q52.5 -23.5 121.5 -23.5q75 0 107.5 28q32.5 28 32.5 80q0 44 -25.5 69.5q-25.5 25.5 -64 42.5q-38.5 17 -83 31q-44.5 14 -83 37.5q-38.5 23.5 -64 61q-25.5 37.5 -25.5 101.5q0 93 55.5 143q55.5 50 179.5 50q57 0 104 -10q47 -10 77 -25l0 -113q-30 26 -78 41q-48 15 -99 15q-78 0 -107.5 -24q-29.5 -24 -29.5 -74q0 -43 25.5 -66.5q25.5 -23.5 64 -39q38.5 -15.5 83 -29.5q44.5 -14 83 -38q38.5 -24 64 -63.5q25.5 -39.5 25.5 -105.5q0 -99 -57 -151.5q-57 -52.5 -181 -52.5zt0 0zM130 928h83l89 -88l89 88h81l-118 -143l-106 0z" />
</font>
</defs>
</svg>
